  0
SECTION
  2
HEADER
  9
$ACADVER
  1
AC1024
  9
$ACADMAINTVER
 70
6
  9
$DWGCODEPAGE
  3
ANSI_1252
  9
$LASTSAVEDBY
  1
ezdxf
  9
$INSBASE
 10
0.0
 20
0.0
 30
0.0
  9
$EXTMIN
 10
1e+20
 20
1e+20
 30
1e+20
  9
$EXTMAX
 10
-1e+20
 20
-1e+20
 30
-1e+20
  9
$LIMMIN
 10
0.0
 20
0.0
  9
$LIMMAX
 10
420.0
 20
297.0
  9
$ORTHOMODE
 70
0
  9
$REGENMODE
 70
1
  9
$FILLMODE
 70
1
  9
$QTEXTMODE
 70
0
  9
$MIRRTEXT
 70
1
  9
$LTSCALE
 40
1.0
  9
$ATTMODE
 70
1
  9
$TEXTSIZE
 40
2.5
  9
$TRACEWID
 40
1.0
  9
$TEXTSTYLE
  7
OpenSans
  9
$CLAYER
  8
0
  9
$CELTYPE
  6
ByLayer
  9
$CECOLOR
 62
256
  9
$CELTSCALE
 40
1.0
  9
$DISPSILH
 70
0
  9
$DIMSCALE
 40
1.0
  9
$DIMASZ
 40
0.175
  9
$DIMEXO
 40
0.125
  9
$DIMDLI
 40
3.75
  9
$DIMRND
 40
0.0
  9
$DIMDLE
 40
0.0
  9
$DIMEXE
 40
0.375
  9
$DIMTP
 40
0.0
  9
$DIMTM
 40
0.0
  9
$DIMTXT
 40
0.25
  9
$DIMCEN
 40
2.5
  9
$DIMTSZ
 40
0.0
  9
$DIMTOL
 70
0
  9
$DIMLIM
 70
0
  9
$DIMTIH
 70
0
  9
$DIMTOH
 70
0
  9
$DIMSE1
 70
0
  9
$DIMSE2
 70
0
  9
$DIMTAD
 70
1
  9
$DIMZIN
 70
12
  9
$DIMBLK
  1
ARCHTICK
  9
$DIMASO
 70
1
  9
$DIMSHO
 70
1
  9
$DIMPOST
  1

  9
$DIMAPOST
  1

  9
$DIMALT
 70
0
  9
$DIMALTD
 70
3
  9
$DIMALTF
 40
0.03937007874
  9
$DIMLFAC
 40
100.0
  9
$DIMTOFL
 70
1
  9
$DIMTVP
 40
0.0
  9
$DIMTIX
 70
0
  9
$DIMSOXD
 70
0
  9
$DIMSAH
 70
0
  9
$DIMBLK1
  1

  9
$DIMBLK2
  1

  9
$DIMSTYLE
  2
EZDXF
  9
$DIMCLRD
 70
0
  9
$DIMCLRE
 70
0
  9
$DIMCLRT
 70
0
  9
$DIMTFAC
 40
0.5
  9
$DIMGAP
 40
0.1
  9
$DIMJUST
 70
0
  9
$DIMSD1
 70
0
  9
$DIMSD2
 70
0
  9
$DIMTOLJ
 70
0
  9
$DIMTZIN
 70
8
  9
$DIMALTZ
 70
0
  9
$DIMALTTZ
 70
0
  9
$DIMUPT
 70
1
  9
$DIMDEC
 70
2
  9
$DIMTDEC
 70
2
  9
$DIMALTU
 70
2
  9
$DIMALTTD
 70
3
  9
$DIMTXSTY
  7
OpenSansCondensed-Light
  9
$DIMAUNIT
 70
0
  9
$DIMADEC
 70
2
  9
$DIMALTRND
 40
0.0
  9
$DIMAZIN
 70
3
  9
$DIMDSEP
 70
46
  9
$DIMATFIT
 70
3
  9
$DIMFRAC
 70
0
  9
$DIMLDRBLK
  1

  9
$DIMLUNIT
 70
2
  9
$DIMLWD
 70
-2
  9
$DIMLWE
 70
-2
  9
$DIMTMOVE
 70
2
  9
$DIMFXL
 40
1.0
  9
$DIMFXLON
 70
0
  9
$DIMJOGANG
 40
0.785398163397
  9
$DIMTFILL
 70
0
  9
$DIMTFILLCLR
 70
0
  9
$DIMARCSYM
 70
0
  9
$DIMLTYPE
  6

  9
$DIMLTEX1
  6

  9
$DIMLTEX2
  6

  9
$DIMTXTDIRECTION
 70
0
  9
$LUNITS
 70
2
  9
$LUPREC
 70
4
  9
$SKETCHINC
 40
1.0
  9
$FILLETRAD
 40
10.0
  9
$AUNITS
 70
0
  9
$AUPREC
 70
2
  9
$MENU
  1
.
  9
$ELEVATION
 40
0.0
  9
$PELEVATION
 40
0.0
  9
$THICKNESS
 40
0.0
  9
$LIMCHECK
 70
0
  9
$CHAMFERA
 40
0.0
  9
$CHAMFERB
 40
0.0
  9
$CHAMFERC
 40
0.0
  9
$CHAMFERD
 40
0.0
  9
$SKPOLY
 70
0
  9
$TDCREATE
 40
2461119.7335416665
  9
$TDUCREATE
 40
2458532.153996898
  9
$TDUPDATE
 40
2461119.7335416665
  9
$TDUUPDATE
 40
2458532.1544311
  9
$TDINDWG
 40
0.0
  9
$TDUSRTIMER
 40
0.0
  9
$USRTIMER
 70
1
  9
$ANGBASE
 50
0.0
  9
$ANGDIR
 70
0
  9
$PDMODE
 70
0
  9
$PDSIZE
 40
0.0
  9
$PLINEWID
 40
0.0
  9
$SPLFRAME
 70
0
  9
$SPLINETYPE
 70
6
  9
$SPLINESEGS
 70
8
  9
$HANDSEED
  5
1FB
  9
$SURFTAB1
 70
6
  9
$SURFTAB2
 70
6
  9
$SURFTYPE
 70
6
  9
$SURFU
 70
6
  9
$SURFV
 70
6
  9
$UCSBASE
  2

  9
$UCSNAME
  2

  9
$UCSORG
 10
0.0
 20
0.0
 30
0.0
  9
$UCSXDIR
 10
1.0
 20
0.0
 30
0.0
  9
$UCSYDIR
 10
0.0
 20
1.0
 30
0.0
  9
$UCSORTHOREF
  2

  9
$UCSORTHOVIEW
 70
0
  9
$UCSORGTOP
 10
0.0
 20
0.0
 30
0.0
  9
$UCSORGBOTTOM
 10
0.0
 20
0.0
 30
0.0
  9
$UCSORGLEFT
 10
0.0
 20
0.0
 30
0.0
  9
$UCSORGRIGHT
 10
0.0
 20
0.0
 30
0.0
  9
$UCSORGFRONT
 10
0.0
 20
0.0
 30
0.0
  9
$UCSORGBACK
 10
0.0
 20
0.0
 30
0.0
  9
$PUCSBASE
  2

  9
$PUCSNAME
  2

  9
$PUCSORG
 10
0.0
 20
0.0
 30
0.0
  9
$PUCSXDIR
 10
1.0
 20
0.0
 30
0.0
  9
$PUCSYDIR
 10
0.0
 20
1.0
 30
0.0
  9
$PUCSORTHOREF
  2

  9
$PUCSORTHOVIEW
 70
0
  9
$PUCSORGTOP
 10
0.0
 20
0.0
 30
0.0
  9
$PUCSORGBOTTOM
 10
0.0
 20
0.0
 30
0.0
  9
$PUCSORGLEFT
 10
0.0
 20
0.0
 30
0.0
  9
$PUCSORGRIGHT
 10
0.0
 20
0.0
 30
0.0
  9
$PUCSORGFRONT
 10
0.0
 20
0.0
 30
0.0
  9
$PUCSORGBACK
 10
0.0
 20
0.0
 30
0.0
  9
$USERI1
 70
0
  9
$USERI2
 70
0
  9
$USERI3
 70
0
  9
$USERI4
 70
0
  9
$USERI5
 70
0
  9
$USERR1
 40
0.0
  9
$USERR2
 40
0.0
  9
$USERR3
 40
0.0
  9
$USERR4
 40
0.0
  9
$USERR5
 40
0.0
  9
$WORLDVIEW
 70
1
  9
$SHADEDGE
 70
3
  9
$SHADEDIF
 70
70
  9
$TILEMODE
 70
1
  9
$MAXACTVP
 70
64
  9
$PINSBASE
 10
0.0
 20
0.0
 30
0.0
  9
$PLIMCHECK
 70
0
  9
$PEXTMIN
 10
1e+20
 20
1e+20
 30
1e+20
  9
$PEXTMAX
 10
-1e+20
 20
-1e+20
 30
-1e+20
  9
$PLIMMIN
 10
0.0
 20
0.0
  9
$PLIMMAX
 10
420.0
 20
297.0
  9
$UNITMODE
 70
0
  9
$VISRETAIN
 70
1
  9
$PLINEGEN
 70
0
  9
$PSLTSCALE
 70
1
  9
$TREEDEPTH
 70
3020
  9
$CMLSTYLE
  2
Standard
  9
$CMLJUST
 70
0
  9
$CMLSCALE
 40
20.0
  9
$PROXYGRAPHICS
 70
1
  9
$MEASUREMENT
 70
1
  9
$CELWEIGHT
370
-1
  9
$ENDCAPS
280
0
  9
$JOINSTYLE
280
0
  9
$LWDISPLAY
290
1
  9
$INSUNITS
 70
6
  9
$HYPERLINKBASE
  1

  9
$STYLESHEET
  1

  9
$XEDIT
290
1
  9
$CEPSNTYPE
380
0
  9
$PSTYLEMODE
290
1
  9
$FINGERPRINTGUID
  2
{10096AE8-97A4-463B-A247-2A5005B23F12}
  9
$VERSIONGUID
  2
{BEFC6DFA-4DF8-49EA-933D-7F9BC2628815}
  9
$EXTNAMES
290
1
  9
$PSVPSCALE
 40
0.0
  9
$OLESTARTUP
290
0
  9
$SORTENTS
280
127
  9
$INDEXCTL
280
0
  9
$HIDETEXT
280
1
  9
$XCLIPFRAME
280
1
  9
$HALOGAP
280
0
  9
$OBSCOLOR
 70
257
  9
$OBSLTYPE
280
0
  9
$INTERSECTIONDISPLAY
280
0
  9
$INTERSECTIONCOLOR
 70
257
  9
$DIMASSOC
280
2
  9
$PROJECTNAME
  1

  9
$CAMERADISPLAY
290
0
  9
$LENSLENGTH
 40
50.0
  9
$CAMERAHEIGHT
 40
0.0
  9
$STEPSPERSEC
 40
24.0
  9
$STEPSIZE
 40
100.0
  9
$3DDWFPREC
 40
2.0
  9
$PSOLWIDTH
 40
0.005
  9
$PSOLHEIGHT
 40
0.08
  9
$LOFTANG1
 40
1.570796326795
  9
$LOFTANG2
 40
1.570796326795
  9
$LOFTMAG1
 40
0.0
  9
$LOFTMAG2
 40
0.0
  9
$LOFTPARAM
 70
7
  9
$LOFTNORMALS
280
1
  9
$LATITUDE
 40
37.795
  9
$LONGITUDE
 40
-122.394
  9
$NORTHDIRECTION
 40
0.0
  9
$TIMEZONE
 70
-8000
  9
$LIGHTGLYPHDISPLAY
280
1
  9
$TILEMODELIGHTSYNCH
280
1
  9
$CMATERIAL
347
20
  9
$SOLIDHIST
280
0
  9
$SHOWHIST
280
1
  9
$DWFFRAME
280
2
  9
$DGNFRAME
280
2
  9
$REALWORLDSCALE
290
1
  9
$INTERFERECOLOR
 62
256
  9
$CSHADOW
280
0
  9
$SHADOWPLANELOCATION
 40
0.0
  0
ENDSEC
  0
SECTION
  2
CLASSES
  0
CLASS
  1
ACDBDICTIONARYWDFLT
  2
AcDbDictionaryWithDefault
  3
ObjectDBX Classes
 90
0
 91
0
280
0
281
0
  0
CLASS
  1
SUN
  2
AcDbSun
  3
SCENEOE
 90
1153
 91
0
280
0
281
0
  0
CLASS
  1
VISUALSTYLE
  2
AcDbVisualStyle
  3
ObjectDBX Classes
 90
4095
 91
0
280
0
281
0
  0
CLASS
  1
MATERIAL
  2
AcDbMaterial
  3
ObjectDBX Classes
 90
1153
 91
0
280
0
281
0
  0
CLASS
  1
SCALE
  2
AcDbScale
  3
ObjectDBX Classes
 90
1153
 91
0
280
0
281
0
  0
CLASS
  1
TABLESTYLE
  2
AcDbTableStyle
  3
ObjectDBX Classes
 90
4095
 91
0
280
0
281
0
  0
CLASS
  1
MLEADERSTYLE
  2
AcDbMLeaderStyle
  3
ACDB_MLEADERSTYLE_CLASS
 90
4095
 91
0
280
0
281
0
  0
CLASS
  1
DICTIONARYVAR
  2
AcDbDictionaryVar
  3
ObjectDBX Classes
 90
0
 91
0
280
0
281
0
  0
CLASS
  1
CELLSTYLEMAP
  2
AcDbCellStyleMap
  3
ObjectDBX Classes
 90
1152
 91
0
280
0
281
0
  0
CLASS
  1
MENTALRAYRENDERSETTINGS
  2
AcDbMentalRayRenderSettings
  3
SCENEOE
 90
1024
 91
0
280
0
281
0
  0
CLASS
  1
ACDBDETAILVIEWSTYLE
  2
AcDbDetailViewStyle
  3
ObjectDBX Classes
 90
1025
 91
0
280
0
281
0
  0
CLASS
  1
ACDBSECTIONVIEWSTYLE
  2
AcDbSectionViewStyle
  3
ObjectDBX Classes
 90
1025
 91
0
280
0
281
0
  0
CLASS
  1
RASTERVARIABLES
  2
AcDbRasterVariables
  3
ISM
 90
0
 91
0
280
0
281
0
  0
CLASS
  1
ACDBPLACEHOLDER
  2
AcDbPlaceHolder
  3
ObjectDBX Classes
 90
0
 91
0
280
0
281
0
  0
CLASS
  1
LAYOUT
  2
AcDbLayout
  3
ObjectDBX Classes
 90
0
 91
0
280
0
281
0
  0
ENDSEC
  0
SECTION
  2
TABLES
  0
TABLE
  2
VPORT
  5
8
330
0
100
AcDbSymbolTable
 70
1
  0
VPORT
  5
23
330
8
100
AcDbSymbolTableRecord
100
AcDbViewportTableRecord
  2
*Active
 70
0
 10
0.0
 20
0.0
 11
1.0
 21
1.0
 12
0.0
 22
0.0
 13
0.0
 23
0.0
 14
0.5
 24
0.5
 15
0.5
 25
0.5
 16
0.0
 26
0.0
 36
1.0
 17
0.0
 27
0.0
 37
0.0
 40
1000.0
 41
1.34
 42
50.0
 43
0.0
 44
0.0
 50
0.0
 51
0.0
 71
0
 72
1000
 73
1
 74
3
 75
0
 76
0
 77
0
 78
0
281
0
 65
0
146
0.0
  0
ENDTAB
  0
TABLE
  2
LTYPE
  5
2
330
0
100
AcDbSymbolTable
 70
21
  0
LTYPE
  5
24
330
2
100
AcDbSymbolTableRecord
100
AcDbLinetypeTableRecord
  2
ByBlock
 70
0
  3

 72
65
 73
0
 40
0.0
  0
LTYPE
  5
25
330
2
100
AcDbSymbolTableRecord
100
AcDbLinetypeTableRecord
  2
ByLayer
 70
0
  3

 72
65
 73
0
 40
0.0
  0
LTYPE
  5
26
330
2
100
AcDbSymbolTableRecord
100
AcDbLinetypeTableRecord
  2
Continuous
 70
0
  3

 72
65
 73
0
 40
0.0
  0
LTYPE
  5
2F
330
2
100
AcDbSymbolTableRecord
100
AcDbLinetypeTableRecord
  2
CENTER
 70
0
  3
Center ____ _ ____ _ ____ _ ____ _ ____ _ ____
 72
65
 73
4
 40
5.08
 49
3.175
 74
0
 49
-0.635
 74
0
 49
0.635
 74
0
 49
-0.635
 74
0
  0
LTYPE
  5
30
330
2
100
AcDbSymbolTableRecord
100
AcDbLinetypeTableRecord
  2
CENTERX2
 70
0
  3
Center (2x) ________  __  ________  __  ________
 72
65
 73
4
 40
8.89
 49
6.35
 74
0
 49
-0.635
 74
0
 49
1.27
 74
0
 49
-0.635
 74
0
  0
LTYPE
  5
31
330
2
100
AcDbSymbolTableRecord
100
AcDbLinetypeTableRecord
  2
CENTER2
 70
0
  3
Center (.5x) ____ _ ____ _ ____ _ ____ _ ____
 72
65
 73
4
 40
2.54
 49
1.587
 74
0
 49
-0.318
 74
0
 49
0.318
 74
0
 49
-0.318
 74
0
  0
LTYPE
  5
32
330
2
100
AcDbSymbolTableRecord
100
AcDbLinetypeTableRecord
  2
DASHED
 70
0
  3
Dashed __ __ __ __ __ __ __ __ __ __ __ __ __ _
 72
65
 73
2
 40
1.524
 49
1.27
 74
0
 49
-0.254
 74
0
  0
LTYPE
  5
33
330
2
100
AcDbSymbolTableRecord
100
AcDbLinetypeTableRecord
  2
DASHEDX2
 70
0
  3
Dashed (2x) ____  ____  ____  ____  ____  ____
 72
65
 73
2
 40
3.048
 49
2.54
 74
0
 49
-0.508
 74
0
  0
LTYPE
  5
34
330
2
100
AcDbSymbolTableRecord
100
AcDbLinetypeTableRecord
  2
DASHED2
 70
0
  3
Dashed (.5x) _ _ _ _ _ _ _ _ _ _ _ _ _ _
 72
65
 73
2
 40
0.762
 49
0.635
 74
0
 49
-0.127
 74
0
  0
LTYPE
  5
35
330
2
100
AcDbSymbolTableRecord
100
AcDbLinetypeTableRecord
  2
PHANTOM
 70
0
  3
Phantom ______  __  __  ______  __  __  ______
 72
65
 73
6
 40
6.35
 49
3.175
 74
0
 49
-0.635
 74
0
 49
0.635
 74
0
 49
-0.635
 74
0
 49
0.635
 74
0
 49
-0.635
 74
0
  0
LTYPE
  5
36
330
2
100
AcDbSymbolTableRecord
100
AcDbLinetypeTableRecord
  2
PHANTOMX2
 70
0
  3
Phantom (2x)____________    ____    ____    ____________
 72
65
 73
6
 40
10.795
 49
6.35
 74
0
 49
-0.635
 74
0
 49
1.27
 74
0
 49
-0.635
 74
0
 49
1.27
 74
0
 49
-0.635
 74
0
  0
LTYPE
  5
37
330
2
100
AcDbSymbolTableRecord
100
AcDbLinetypeTableRecord
  2
PHANTOM2
 70
0
  3
Phantom (.5x) ___ _ _ ___ _ _ ___ _ _ ___ _ _ ___
 72
65
 73
6
 40
3.175
 49
1.587
 74
0
 49
-0.318
 74
0
 49
0.318
 74
0
 49
-0.318
 74
0
 49
0.318
 74
0
 49
-0.318
 74
0
  0
LTYPE
  5
38
330
2
100
AcDbSymbolTableRecord
100
AcDbLinetypeTableRecord
  2
DASHDOT
 70
0
  3
Dash dot __ . __ . __ . __ . __ . __ . __ . __
 72
65
 73
4
 40
3.556
 49
2.54
 74
0
 49
-0.508
 74
0
 49
0.0
 74
0
 49
-0.508
 74
0
  0
LTYPE
  5
39
330
2
100
AcDbSymbolTableRecord
100
AcDbLinetypeTableRecord
  2
DASHDOTX2
 70
0
  3
Dash dot (2x) ____  .  ____  .  ____  .  ____
 72
65
 73
4
 40
6.096
 49
5.08
 74
0
 49
-0.508
 74
0
 49
0.0
 74
0
 49
-0.508
 74
0
  0
LTYPE
  5
3A
330
2
100
AcDbSymbolTableRecord
100
AcDbLinetypeTableRecord
  2
DASHDOT2
 70
0
  3
Dash dot (.5x) _ . _ . _ . _ . _ . _ . _ . _
 72
65
 73
4
 40
1.778
 49
1.27
 74
0
 49
-0.254
 74
0
 49
0.0
 74
0
 49
-0.254
 74
0
  0
LTYPE
  5
3B
330
2
100
AcDbSymbolTableRecord
100
AcDbLinetypeTableRecord
  2
DOT
 70
0
  3
Dot .  .  .  .  .  .  .  .  .  .  .  .  .  .  .  .
 72
65
 73
2
 40
0.508
 49
0.0
 74
0
 49
-0.508
 74
0
  0
LTYPE
  5
3C
330
2
100
AcDbSymbolTableRecord
100
AcDbLinetypeTableRecord
  2
DOTX2
 70
0
  3
Dot (2x) .    .    .    .    .    .    .    . 
 72
65
 73
2
 40
1.016
 49
0.0
 74
0
 49
-1.016
 74
0
  0
LTYPE
  5
3D
330
2
100
AcDbSymbolTableRecord
100
AcDbLinetypeTableRecord
  2
DOT2
 70
0
  3
Dot (.5) . . . . . . . . . . . . . . . . . . . 
 72
65
 73
2
 40
0.254
 49
0.0
 74
0
 49
-0.254
 74
0
  0
LTYPE
  5
3E
330
2
100
AcDbSymbolTableRecord
100
AcDbLinetypeTableRecord
  2
DIVIDE
 70
0
  3
Divide __ . . __ . . __ . . __ . . __ . . __
 72
65
 73
6
 40
4.064
 49
2.54
 74
0
 49
-0.508
 74
0
 49
0.0
 74
0
 49
-0.508
 74
0
 49
0.0
 74
0
 49
-0.508
 74
0
  0
LTYPE
  5
3F
330
2
100
AcDbSymbolTableRecord
100
AcDbLinetypeTableRecord
  2
DIVIDEX2
 70
0
  3
Divide (2x) ____  . .  ____  . .  ____  . .  ____
 72
65
 73
6
 40
6.604
 49
5.08
 74
0
 49
-0.508
 74
0
 49
0.0
 74
0
 49
-0.508
 74
0
 49
0.0
 74
0
 49
-0.508
 74
0
  0
LTYPE
  5
40
330
2
100
AcDbSymbolTableRecord
100
AcDbLinetypeTableRecord
  2
DIVIDE2
 70
0
  3
Divide(.5x) _ . _ . _ . _ . _ . _ . _ . _
 72
65
 73
6
 40
2.032
 49
1.27
 74
0
 49
-0.254
 74
0
 49
0.0
 74
0
 49
-0.254
 74
0
 49
0.0
 74
0
 49
-0.254
 74
0
  0
ENDTAB
  0
TABLE
  2
LAYER
  5
1
330
0
100
AcDbSymbolTable
 70
63
  0
LAYER
  5
27
330
1
100
AcDbSymbolTableRecord
100
AcDbLayerTableRecord
  2
0
 70
0
 62
7
  6
Continuous
370
-3
390
13
347
21
  0
LAYER
  5
28
330
1
100
AcDbSymbolTableRecord
100
AcDbLayerTableRecord
  2
Defpoints
 70
0
 62
7
  6
Continuous
290
0
370
-3
390
13
347
21
  0
LAYER
  5
90
330
1
100
AcDbSymbolTableRecord
100
AcDbLayerTableRecord
  2
BORDER
 70
0
 62
7
  6
Continuous
370
70
390
13
347
21
  0
LAYER
  5
91
330
1
100
AcDbSymbolTableRecord
100
AcDbLayerTableRecord
  2
TITLEBLOCK
 70
0
 62
7
  6
Continuous
370
50
390
13
347
21
  0
LAYER
  5
92
330
1
100
AcDbSymbolTableRecord
100
AcDbLayerTableRecord
  2
SITE_BOUNDARY
 70
0
 62
1
  6
DASHDOT
370
70
390
13
347
21
  0
LAYER
  5
93
330
1
100
AcDbSymbolTableRecord
100
AcDbLayerTableRecord
  2
ZONE_BOUNDARY
 70
0
 62
40
  6
DASHED
370
50
390
13
347
21
  0
LAYER
  5
94
330
1
100
AcDbSymbolTableRecord
100
AcDbLayerTableRecord
  2
BUILDINGS
 70
0
 62
7
  6
Continuous
370
50
390
13
347
21
  0
LAYER
  5
95
330
1
100
AcDbSymbolTableRecord
100
AcDbLayerTableRecord
  2
BUILDINGS_EXISTING
 70
0
 62
30
  6
Continuous
370
50
390
13
347
21
  0
LAYER
  5
96
330
1
100
AcDbSymbolTableRecord
100
AcDbLayerTableRecord
  2
HATCH_RESIDENTIAL_LOW
 70
0
 62
40
  6
Continuous
370
5
390
13
347
21
  0
LAYER
  5
97
330
1
100
AcDbSymbolTableRecord
100
AcDbLayerTableRecord
  2
HATCH_RESIDENTIAL_MED
 70
0
 62
142
  6
Continuous
370
5
390
13
347
21
  0
LAYER
  5
98
330
1
100
AcDbSymbolTableRecord
100
AcDbLayerTableRecord
  2
HATCH_RESIDENTIAL_HIGH
 70
0
 62
150
  6
Continuous
370
5
390
13
347
21
  0
LAYER
  5
99
330
1
100
AcDbSymbolTableRecord
100
AcDbLayerTableRecord
  2
HATCH_COMMERCIAL
 70
0
 62
10
  6
Continuous
370
5
390
13
347
21
  0
LAYER
  5
9A
330
1
100
AcDbSymbolTableRecord
100
AcDbLayerTableRecord
  2
HATCH_GREEN
 70
0
 62
82
  6
Continuous
370
5
390
13
347
21
  0
LAYER
  5
9B
330
1
100
AcDbSymbolTableRecord
100
AcDbLayerTableRecord
  2
HATCH_EDUCATION
 70
0
 62
50
  6
Continuous
370
5
390
13
347
21
  0
LAYER
  5
9C
330
1
100
AcDbSymbolTableRecord
100
AcDbLayerTableRecord
  2
HATCH_HEALTH
 70
0
 62
200
  6
Continuous
370
5
390
13
347
21
  0
LAYER
  5
9D
330
1
100
AcDbSymbolTableRecord
100
AcDbLayerTableRecord
  2
HATCH_RELIGIOUS
 70
0
 62
170
  6
Continuous
370
5
390
13
347
21
  0
LAYER
  5
9E
330
1
100
AcDbSymbolTableRecord
100
AcDbLayerTableRecord
  2
HATCH_ROAD
 70
0
 62
253
  6
Continuous
370
5
390
13
347
21
  0
LAYER
  5
9F
330
1
100
AcDbSymbolTableRecord
100
AcDbLayerTableRecord
  2
HATCH_WATER
 70
0
 62
150
  6
Continuous
370
5
390
13
347
21
  0
LAYER
  5
A0
330
1
100
AcDbSymbolTableRecord
100
AcDbLayerTableRecord
  2
HATCH_SOLAR
 70
0
 62
50
  6
Continuous
370
5
390
13
347
21
  0
LAYER
  5
A1
330
1
100
AcDbSymbolTableRecord
100
AcDbLayerTableRecord
  2
ROADS_PRIMARY
 70
0
 62
7
  6
Continuous
370
50
390
13
347
21
  0
LAYER
  5
A2
330
1
100
AcDbSymbolTableRecord
100
AcDbLayerTableRecord
  2
ROADS_SECONDARY
 70
0
 62
30
  6
Continuous
370
35
390
13
347
21
  0
LAYER
  5
A3
330
1
100
AcDbSymbolTableRecord
100
AcDbLayerTableRecord
  2
ROADS_LOCAL
 70
0
 62
253
  6
Continuous
370
25
390
13
347
21
  0
LAYER
  5
A4
330
1
100
AcDbSymbolTableRecord
100
AcDbLayerTableRecord
  2
ROADS_CENTER
 70
0
 62
4
  6
CENTER
370
18
390
13
347
21
  0
LAYER
  5
A5
330
1
100
AcDbSymbolTableRecord
100
AcDbLayerTableRecord
  2
BRT_LINE
 70
0
 62
1
  6
DASHED
370
35
390
13
347
21
  0
LAYER
  5
A6
330
1
100
AcDbSymbolTableRecord
100
AcDbLayerTableRecord
  2
BRT_STATION
 70
0
 62
1
  6
Continuous
370
35
390
13
347
21
  0
LAYER
  5
A7
330
1
100
AcDbSymbolTableRecord
100
AcDbLayerTableRecord
  2
PEDESTRIAN
 70
0
 62
3
  6
DASHED
370
18
390
13
347
21
  0
LAYER
  5
A8
330
1
100
AcDbSymbolTableRecord
100
AcDbLayerTableRecord
  2
TREES
 70
0
 62
82
  6
Continuous
370
18
390
13
347
21
  0
LAYER
  5
A9
330
1
100
AcDbSymbolTableRecord
100
AcDbLayerTableRecord
  2
GREEN_CORRIDOR
 70
0
 62
3
  6
Continuous
370
25
390
13
347
21
  0
LAYER
  5
AA
330
1
100
AcDbSymbolTableRecord
100
AcDbLayerTableRecord
  2
GREEN_BELT
 70
0
 62
94
  6
Continuous
370
25
390
13
347
21
  0
LAYER
  5
AB
330
1
100
AcDbSymbolTableRecord
100
AcDbLayerTableRecord
  2
CONTOUR_MAJOR
 70
0
 62
46
  6
Continuous
370
25
390
13
347
21
  0
LAYER
  5
AC
330
1
100
AcDbSymbolTableRecord
100
AcDbLayerTableRecord
  2
CONTOUR_MINOR
 70
0
 62
46
  6
Continuous
370
13
390
13
347
21
  0
LAYER
  5
AD
330
1
100
AcDbSymbolTableRecord
100
AcDbLayerTableRecord
  2
WATER_CHANNEL
 70
0
 62
5
  6
Continuous
370
25
390
13
347
21
  0
LAYER
  5
AE
330
1
100
AcDbSymbolTableRecord
100
AcDbLayerTableRecord
  2
EXISTING_STRUCT
 70
0
 62
30
  6
Continuous
370
50
390
13
347
21
  0
LAYER
  5
AF
330
1
100
AcDbSymbolTableRecord
100
AcDbLayerTableRecord
  2
HIGHWAY
 70
0
 62
1
  6
DASHED
370
50
390
13
347
21
  0
LAYER
  5
B0
330
1
100
AcDbSymbolTableRecord
100
AcDbLayerTableRecord
  2
DIMENSIONS
 70
0
 62
2
  6
Continuous
370
18
390
13
347
21
  0
LAYER
  5
B1
330
1
100
AcDbSymbolTableRecord
100
AcDbLayerTableRecord
  2
TEXT_TITLE
 70
0
 62
7
  6
Continuous
370
25
390
13
347
21
  0
LAYER
  5
B2
330
1
100
AcDbSymbolTableRecord
100
AcDbLayerTableRecord
  2
TEXT_LABEL
 70
0
 62
7
  6
Continuous
370
18
390
13
347
21
  0
LAYER
  5
B3
330
1
100
AcDbSymbolTableRecord
100
AcDbLayerTableRecord
  2
TEXT_NOTE
 70
0
 62
7
  6
Continuous
370
13
390
13
347
21
  0
LAYER
  5
B4
330
1
100
AcDbSymbolTableRecord
100
AcDbLayerTableRecord
  2
ANNOTATION
 70
0
 62
7
  6
Continuous
370
18
390
13
347
21
  0
LAYER
  5
B5
330
1
100
AcDbSymbolTableRecord
100
AcDbLayerTableRecord
  2
NORTH_ARROW
 70
0
 62
7
  6
Continuous
370
35
390
13
347
21
  0
LAYER
  5
B6
330
1
100
AcDbSymbolTableRecord
100
AcDbLayerTableRecord
  2
SCALE_BAR
 70
0
 62
7
  6
Continuous
370
25
390
13
347
21
  0
LAYER
  5
B7
330
1
100
AcDbSymbolTableRecord
100
AcDbLayerTableRecord
  2
SETBACKS
 70
0
 62
1
  6
DASHED
370
13
390
13
347
21
  0
LAYER
  5
B8
330
1
100
AcDbSymbolTableRecord
100
AcDbLayerTableRecord
  2
LOT_GRID
 70
0
 62
253
  6
DASHED
370
5
390
13
347
21
  0
LAYER
  5
B9
330
1
100
AcDbSymbolTableRecord
100
AcDbLayerTableRecord
  2
HEIGHT_2FL
 70
0
 62
82
  6
Continuous
370
25
390
13
347
21
  0
LAYER
  5
BA
330
1
100
AcDbSymbolTableRecord
100
AcDbLayerTableRecord
  2
HEIGHT_46FL
 70
0
 62
150
  6
Continuous
370
25
390
13
347
21
  0
LAYER
  5
BB
330
1
100
AcDbSymbolTableRecord
100
AcDbLayerTableRecord
  2
HEIGHT_68FL
 70
0
 62
30
  6
Continuous
370
25
390
13
347
21
  0
LAYER
  5
BC
330
1
100
AcDbSymbolTableRecord
100
AcDbLayerTableRecord
  2
HEIGHT_1014FL
 70
0
 62
1
  6
Continuous
370
35
390
13
347
21
  0
LAYER
  5
BD
330
1
100
AcDbSymbolTableRecord
100
AcDbLayerTableRecord
  2
HATCH_H2
 70
0
 62
82
  6
Continuous
370
5
390
13
347
21
  0
LAYER
  5
BE
330
1
100
AcDbSymbolTableRecord
100
AcDbLayerTableRecord
  2
HATCH_H46
 70
0
 62
150
  6
Continuous
370
5
390
13
347
21
  0
LAYER
  5
BF
330
1
100
AcDbSymbolTableRecord
100
AcDbLayerTableRecord
  2
HATCH_H68
 70
0
 62
30
  6
Continuous
370
5
390
13
347
21
  0
LAYER
  5
C0
330
1
100
AcDbSymbolTableRecord
100
AcDbLayerTableRecord
  2
HATCH_H1014
 70
0
 62
1
  6
Continuous
370
5
390
13
347
21
  0
LAYER
  5
C1
330
1
100
AcDbSymbolTableRecord
100
AcDbLayerTableRecord
  2
GROUND
 70
0
 62
46
  6
Continuous
370
50
390
13
347
21
  0
LAYER
  5
C2
330
1
100
AcDbSymbolTableRecord
100
AcDbLayerTableRecord
  2
ASPHALT
 70
0
 62
253
  6
Continuous
370
35
390
13
347
21
  0
LAYER
  5
C3
330
1
100
AcDbSymbolTableRecord
100
AcDbLayerTableRecord
  2
SIDEWALK_CS
 70
0
 62
7
  6
Continuous
370
25
390
13
347
21
  0
LAYER
  5
C4
330
1
100
AcDbSymbolTableRecord
100
AcDbLayerTableRecord
  2
MEDIAN_CS
 70
0
 62
3
  6
Continuous
370
25
390
13
347
21
  0
LAYER
  5
C5
330
1
100
AcDbSymbolTableRecord
100
AcDbLayerTableRecord
  2
BIKE_CS
 70
0
 62
82
  6
Continuous
370
25
390
13
347
21
  0
LAYER
  5
C6
330
1
100
AcDbSymbolTableRecord
100
AcDbLayerTableRecord
  2
BRT_CS
 70
0
 62
1
  6
Continuous
370
25
390
13
347
21
  0
LAYER
  5
C7
330
1
100
AcDbSymbolTableRecord
100
AcDbLayerTableRecord
  2
TREE_CS
 70
0
 62
3
  6
Continuous
370
18
390
13
347
21
  0
LAYER
  5
C8
330
1
100
AcDbSymbolTableRecord
100
AcDbLayerTableRecord
  2
HATCH_ASPHALT
 70
0
 62
253
  6
Continuous
370
5
390
13
347
21
  0
LAYER
  5
C9
330
1
100
AcDbSymbolTableRecord
100
AcDbLayerTableRecord
  2
HATCH_SIDEWALK
 70
0
 62
7
  6
Continuous
370
5
390
13
347
21
  0
LAYER
  5
CA
330
1
100
AcDbSymbolTableRecord
100
AcDbLayerTableRecord
  2
HATCH_MEDIAN
 70
0
 62
82
  6
Continuous
370
5
390
13
347
21
  0
LAYER
  5
CB
330
1
100
AcDbSymbolTableRecord
100
AcDbLayerTableRecord
  2
HATCH_BIKE
 70
0
 62
82
  6
Continuous
370
5
390
13
347
21
  0
LAYER
  5
CC
330
1
100
AcDbSymbolTableRecord
100
AcDbLayerTableRecord
  2
HATCH_BRT
 70
0
 62
10
  6
Continuous
370
5
390
13
347
21
  0
ENDTAB
  0
TABLE
  2
STYLE
  5
5
330
0
100
AcDbSymbolTable
 70
31
  0
STYLE
  5
29
330
5
100
AcDbSymbolTableRecord
100
AcDbTextStyleTableRecord
  2
Standard
 70
0
 40
0.0
 41
1.0
 50
0.0
 71
0
 42
2.5
  3
txt
  4

  0
STYLE
  5
41
330
5
100
AcDbSymbolTableRecord
100
AcDbTextStyleTableRecord
  2
OpenSans-Light
 70
0
 40
0.0
 41
1.0
 50
0.0
 71
0
 42
2.5
  3
OpenSans-Light.ttf
  4

  0
STYLE
  5
42
330
5
100
AcDbSymbolTableRecord
100
AcDbTextStyleTableRecord
  2
OpenSans-Light-Italic
 70
0
 40
0.0
 41
1.0
 50
0.0
 71
0
 42
2.5
  3
OpenSans-LightItalic.ttf
  4

  0
STYLE
  5
43
330
5
100
AcDbSymbolTableRecord
100
AcDbTextStyleTableRecord
  2
OpenSans
 70
0
 40
0.0
 41
1.0
 50
0.0
 71
0
 42
2.5
  3
OpenSans-Regular.ttf
  4

  0
STYLE
  5
44
330
5
100
AcDbSymbolTableRecord
100
AcDbTextStyleTableRecord
  2
OpenSans-Italic
 70
0
 40
0.0
 41
1.0
 50
0.0
 71
0
 42
2.5
  3
OpenSans-Italic.ttf
  4

  0
STYLE
  5
45
330
5
100
AcDbSymbolTableRecord
100
AcDbTextStyleTableRecord
  2
OpenSans-SemiBold
 70
0
 40
0.0
 41
1.0
 50
0.0
 71
0
 42
2.5
  3
OpenSans-SemiBold.ttf
  4

  0
STYLE
  5
46
330
5
100
AcDbSymbolTableRecord
100
AcDbTextStyleTableRecord
  2
OpenSans-SemiBoldItalic
 70
0
 40
0.0
 41
1.0
 50
0.0
 71
0
 42
2.5
  3
OpenSans-SemiBoldItalic.ttf
  4

  0
STYLE
  5
47
330
5
100
AcDbSymbolTableRecord
100
AcDbTextStyleTableRecord
  2
OpenSans-Bold
 70
0
 40
0.0
 41
1.0
 50
0.0
 71
0
 42
2.5
  3
OpenSans-Bold.ttf
  4

  0
STYLE
  5
48
330
5
100
AcDbSymbolTableRecord
100
AcDbTextStyleTableRecord
  2
OpenSans-BoldItalic
 70
0
 40
0.0
 41
1.0
 50
0.0
 71
0
 42
2.5
  3
OpenSans-BoldItalic.ttf
  4

  0
STYLE
  5
49
330
5
100
AcDbSymbolTableRecord
100
AcDbTextStyleTableRecord
  2
OpenSans-ExtraBold
 70
0
 40
0.0
 41
1.0
 50
0.0
 71
0
 42
2.5
  3
OpenSans-ExtraBold.ttf
  4

  0
STYLE
  5
4A
330
5
100
AcDbSymbolTableRecord
100
AcDbTextStyleTableRecord
  2
OpenSans-ExtraBoldItalic
 70
0
 40
0.0
 41
1.0
 50
0.0
 71
0
 42
2.5
  3
OpenSans-ExtraBoldItalic.ttf
  4

  0
STYLE
  5
4B
330
5
100
AcDbSymbolTableRecord
100
AcDbTextStyleTableRecord
  2
OpenSansCondensed-Bold
 70
0
 40
0.0
 41
1.0
 50
0.0
 71
0
 42
2.5
  3
OpenSansCondensed-Bold.ttf
  4

  0
STYLE
  5
4C
330
5
100
AcDbSymbolTableRecord
100
AcDbTextStyleTableRecord
  2
OpenSansCondensed-Light
 70
0
 40
0.0
 41
1.0
 50
0.0
 71
0
 42
2.5
  3
OpenSansCondensed-Light.ttf
  4

  0
STYLE
  5
4D
330
5
100
AcDbSymbolTableRecord
100
AcDbTextStyleTableRecord
  2
OpenSansCondensed-Italic
 70
0
 40
0.0
 41
1.0
 50
0.0
 71
0
 42
2.5
  3
OpenSansCondensed-LightItalic.ttf
  4

  0
STYLE
  5
4E
330
5
100
AcDbSymbolTableRecord
100
AcDbTextStyleTableRecord
  2
LiberationSans
 70
0
 40
0.0
 41
1.0
 50
0.0
 71
0
 42
2.5
  3
LiberationSans-Regular.ttf
  4

  0
STYLE
  5
4F
330
5
100
AcDbSymbolTableRecord
100
AcDbTextStyleTableRecord
  2
LiberationSans-Bold
 70
0
 40
0.0
 41
1.0
 50
0.0
 71
0
 42
2.5
  3
LiberationSans-Bold.ttf
  4

  0
STYLE
  5
50
330
5
100
AcDbSymbolTableRecord
100
AcDbTextStyleTableRecord
  2
LiberationSans-BoldItalic
 70
0
 40
0.0
 41
1.0
 50
0.0
 71
0
 42
2.5
  3
LiberationSans-BoldItalic.ttf
  4

  0
STYLE
  5
51
330
5
100
AcDbSymbolTableRecord
100
AcDbTextStyleTableRecord
  2
LiberationSans-Italic
 70
0
 40
0.0
 41
1.0
 50
0.0
 71
0
 42
2.5
  3
LiberationSans-Italic.ttf
  4

  0
STYLE
  5
52
330
5
100
AcDbSymbolTableRecord
100
AcDbTextStyleTableRecord
  2
LiberationSerif
 70
0
 40
0.0
 41
1.0
 50
0.0
 71
0
 42
2.5
  3
LiberationSerif-Regular.ttf
  4

  0
STYLE
  5
53
330
5
100
AcDbSymbolTableRecord
100
AcDbTextStyleTableRecord
  2
LiberationSerif-Bold
 70
0
 40
0.0
 41
1.0
 50
0.0
 71
0
 42
2.5
  3
LiberationSerif-Bold.ttf
  4

  0
STYLE
  5
54
330
5
100
AcDbSymbolTableRecord
100
AcDbTextStyleTableRecord
  2
LiberationSerif-BoldItalic
 70
0
 40
0.0
 41
1.0
 50
0.0
 71
0
 42
2.5
  3
LiberationSerif-BoldItalic.ttf
  4

  0
STYLE
  5
55
330
5
100
AcDbSymbolTableRecord
100
AcDbTextStyleTableRecord
  2
LiberationSerif-Italic
 70
0
 40
0.0
 41
1.0
 50
0.0
 71
0
 42
2.5
  3
LiberationSerif-Italic.ttf
  4

  0
STYLE
  5
56
330
5
100
AcDbSymbolTableRecord
100
AcDbTextStyleTableRecord
  2
LiberationMono
 70
0
 40
0.0
 41
1.0
 50
0.0
 71
0
 42
2.5
  3
LiberationMono-Regular.ttf
  4

  0
STYLE
  5
57
330
5
100
AcDbSymbolTableRecord
100
AcDbTextStyleTableRecord
  2
LiberationMono-Bold
 70
0
 40
0.0
 41
1.0
 50
0.0
 71
0
 42
2.5
  3
LiberationMono-Bold.ttf
  4

  0
STYLE
  5
58
330
5
100
AcDbSymbolTableRecord
100
AcDbTextStyleTableRecord
  2
LiberationMono-BoldItalic
 70
0
 40
0.0
 41
1.0
 50
0.0
 71
0
 42
2.5
  3
LiberationMono-BoldItalic.ttf
  4

  0
STYLE
  5
59
330
5
100
AcDbSymbolTableRecord
100
AcDbTextStyleTableRecord
  2
LiberationMono-Italic
 70
0
 40
0.0
 41
1.0
 50
0.0
 71
0
 42
2.5
  3
LiberationMono-Italic.ttf
  4

  0
STYLE
  5
8A
330
5
100
AcDbSymbolTableRecord
100
AcDbTextStyleTableRecord
  2
TITLE
 70
0
 40
0.0
 41
1.0
 50
0.0
 71
0
 42
2.5
  3
Arial.ttf
  4

  0
STYLE
  5
8B
330
5
100
AcDbSymbolTableRecord
100
AcDbTextStyleTableRecord
  2
SUBTITLE
 70
0
 40
0.0
 41
1.0
 50
0.0
 71
0
 42
2.5
  3
Arial.ttf
  4

  0
STYLE
  5
8C
330
5
100
AcDbSymbolTableRecord
100
AcDbTextStyleTableRecord
  2
LABEL
 70
0
 40
0.0
 41
0.9
 50
0.0
 71
0
 42
2.5
  3
Arial.ttf
  4

  0
STYLE
  5
8D
330
5
100
AcDbSymbolTableRecord
100
AcDbTextStyleTableRecord
  2
NOTE
 70
0
 40
0.0
 41
0.85
 50
0.0
 71
0
 42
2.5
  3
Arial.ttf
  4

  0
STYLE
  5
8E
330
5
100
AcDbSymbolTableRecord
100
AcDbTextStyleTableRecord
  2
DIM
 70
0
 40
0.0
 41
0.9
 50
0.0
 71
0
 42
2.5
  3
Arial.ttf
  4

  0
ENDTAB
  0
TABLE
  2
VIEW
  5
7
330
0
100
AcDbSymbolTable
 70
0
  0
ENDTAB
  0
TABLE
  2
UCS
  5
6
330
0
100
AcDbSymbolTable
 70
0
  0
ENDTAB
  0
TABLE
  2
APPID
  5
3
330
0
100
AcDbSymbolTable
 70
3
  0
APPID
  5
2A
330
3
100
AcDbSymbolTableRecord
100
AcDbRegAppTableRecord
  2
ACAD
 70
0
  0
APPID
  5
1F8
330
3
100
AcDbSymbolTableRecord
100
AcDbRegAppTableRecord
  2
HATCHBACKGROUNDCOLOR
 70
0
  0
APPID
  5
1F9
330
3
100
AcDbSymbolTableRecord
100
AcDbRegAppTableRecord
  2
EZDXF
 70
0
  0
ENDTAB
  0
TABLE
  2
DIMSTYLE
  5
4
330
0
100
AcDbSymbolTable
 70
13
100
AcDbDimStyleTable
  0
DIMSTYLE
105
2B
330
4
100
AcDbSymbolTableRecord
100
AcDbDimStyleTableRecord
  2
Standard
 70
0
 40
1.0
 41
2.5
 42
0.625
 43
3.75
 44
1.25
 45
0.0
 46
0.0
 47
0.0
 48
0.0
 49
2.5
140
2.5
141
2.5
142
0.0
143
0.03937007874
144
1.0
145
0.0
146
1.0
147
0.625
148
0.0
 69
0
 70
0
 71
0
 72
0
 73
0
 74
0
 75
0
 76
0
 77
1
 78
8
 79
3
170
0
171
3
172
1
173
0
174
0
175
0
176
0
177
0
178
0
179
2
271
2
272
2
273
2
274
3
275
0
276
0
277
2
278
44
279
0
280
0
281
0
282
0
283
0
284
8
285
0
286
0
288
0
289
3
290
0
371
-2
372
-2
  0
DIMSTYLE
105
73
330
4
100
AcDbSymbolTableRecord
100
AcDbDimStyleTableRecord
  2
EZDXF
 70
0
 40
1.0
 41
0.175
 42
0.125
 43
3.75
 44
0.375
 45
0.0
 46
0.0
 47
0.0
 48
0.0
 49
2.5
140
0.25
141
2.5
142
0.0
143
0.03937007874
144
100.0
145
0.0
146
0.5
147
0.1
148
0.0
 69
0
 70
0
 71
0
 72
0
 73
0
 74
0
 75
0
 76
0
 77
1
 78
12
 79
3
170
0
171
3
172
1
173
0
174
0
175
0
176
0
177
0
178
0
179
2
271
2
272
2
273
2
274
3
275
0
276
0
277
2
278
46
279
2
280
0
281
0
282
0
283
0
284
8
285
0
286
0
288
1
289
3
290
0
340
4C
342
74
371
-2
372
-2
  0
DIMSTYLE
105
7C
330
4
100
AcDbSymbolTableRecord
100
AcDbDimStyleTableRecord
  2
EZ_M_100_H25_CM
 70
0
 40
1.0
 41
0.25
 42
0.125
 43
3.75
 44
0.375
 45
0.0
 46
0.0
 47
0.0
 48
0.0
 49
2.5
140
0.25
141
2.5
142
0.125
143
0.03937007874
144
100.0
145
0.0
146
0.5
147
0.1
148
0.0
 69
0
 70
0
 71
0
 72
0
 73
0
 74
0
 75
0
 76
0
 77
1
 78
12
 79
3
170
0
171
3
172
1
173
0
174
0
175
0
176
0
177
0
178
0
179
2
271
2
272
2
273
2
274
3
275
0
276
0
277
2
278
46
279
2
280
0
281
0
282
0
283
0
284
8
285
0
286
0
288
1
289
3
290
0
340
4C
371
-2
372
-2
  0
DIMSTYLE
105
7D
330
4
100
AcDbSymbolTableRecord
100
AcDbDimStyleTableRecord
  2
EZ_M_50_H25_CM
 70
0
 40
1.0
 41
0.125
 42
0.0625
 43
3.75
 44
0.1875
 45
0.0
 46
0.0
 47
0.0
 48
0.0
 49
2.5
140
0.125
141
2.5
142
0.0625
143
0.03937007874
144
100.0
145
0.0
146
0.5
147
0.05
148
0.0
 69
0
 70
0
 71
0
 72
0
 73
0
 74
0
 75
0
 76
0
 77
1
 78
12
 79
3
170
0
171
3
172
1
173
0
174
0
175
0
176
0
177
0
178
0
179
2
271
2
272
2
273
2
274
3
275
0
276
0
277
2
278
46
279
2
280
0
281
0
282
0
283
0
284
8
285
0
286
0
288
1
289
3
290
0
340
4C
371
-2
372
-2
  0
DIMSTYLE
105
7E
330
4
100
AcDbSymbolTableRecord
100
AcDbDimStyleTableRecord
  2
EZ_M_25_H25_CM
 70
0
 40
1.0
 41
0.0625
 42
0.03125
 43
3.75
 44
0.09375
 45
0.0
 46
0.0
 47
0.0
 48
0.0
 49
2.5
140
0.0625
141
2.5
142
0.03125
143
0.03937007874
144
100.0
145
0.0
146
0.5
147
0.025
148
0.0
 69
0
 70
0
 71
0
 72
0
 73
0
 74
0
 75
0
 76
0
 77
1
 78
12
 79
3
170
0
171
3
172
1
173
0
174
0
175
0
176
0
177
0
178
0
179
2
271
2
272
2
273
2
274
3
275
0
276
0
277
2
278
46
279
2
280
0
281
0
282
0
283
0
284
8
285
0
286
0
288
1
289
3
290
0
340
4C
371
-2
372
-2
  0
DIMSTYLE
105
7F
330
4
100
AcDbSymbolTableRecord
100
AcDbDimStyleTableRecord
  2
EZ_M_20_H25_CM
 70
0
 40
1.0
 41
0.05
 42
0.025
 43
3.75
 44
0.07500000000000001
 45
0.0
 46
0.0
 47
0.0
 48
0.0
 49
2.5
140
0.05
141
2.5
142
0.025
143
0.03937007874
144
100.0
145
0.0
146
0.5
147
0.020000000000000004
148
0.0
 69
0
 70
0
 71
0
 72
0
 73
0
 74
0
 75
0
 76
0
 77
1
 78
12
 79
3
170
0
171
3
172
1
173
0
174
0
175
0
176
0
177
0
178
0
179
2
271
2
272
2
273
2
274
3
275
0
276
0
277
2
278
46
279
2
280
0
281
0
282
0
283
0
284
8
285
0
286
0
288
1
289
3
290
0
340
4C
371
-2
372
-2
  0
DIMSTYLE
105
80
330
4
100
AcDbSymbolTableRecord
100
AcDbDimStyleTableRecord
  2
EZ_M_10_H25_CM
 70
0
 40
1.0
 41
0.025
 42
0.0125
 43
3.75
 44
0.037500000000000006
 45
0.0
 46
0.0
 47
0.0
 48
0.0
 49
2.5
140
0.025
141
2.5
142
0.0125
143
0.03937007874
144
100.0
145
0.0
146
0.5
147
0.010000000000000002
148
0.0
 69
0
 70
0
 71
0
 72
0
 73
0
 74
0
 75
0
 76
0
 77
1
 78
12
 79
3
170
0
171
3
172
1
173
0
174
0
175
0
176
0
177
0
178
0
179
2
271
2
272
2
273
2
274
3
275
0
276
0
277
2
278
46
279
2
280
0
281
0
282
0
283
0
284
8
285
0
286
0
288
1
289
3
290
0
340
4C
371
-2
372
-2
  0
DIMSTYLE
105
81
330
4
100
AcDbSymbolTableRecord
100
AcDbDimStyleTableRecord
  2
EZ_M_5_H25_CM
 70
0
 40
1.0
 41
0.0125
 42
0.00625
 43
3.75
 44
0.018750000000000003
 45
0.0
 46
0.0
 47
0.0
 48
0.0
 49
2.5
140
0.0125
141
2.5
142
0.00625
143
0.03937007874
144
100.0
145
0.0
146
0.5
147
0.005000000000000001
148
0.0
 69
0
 70
0
 71
0
 72
0
 73
0
 74
0
 75
0
 76
0
 77
1
 78
12
 79
3
170
0
171
3
172
1
173
0
174
0
175
0
176
0
177
0
178
0
179
2
271
2
272
2
273
2
274
3
275
0
276
0
277
2
278
46
279
2
280
0
281
0
282
0
283
0
284
8
285
0
286
0
288
1
289
3
290
0
340
4C
371
-2
372
-2
  0
DIMSTYLE
105
82
330
4
100
AcDbSymbolTableRecord
100
AcDbDimStyleTableRecord
  2
EZ_M_1_H25_CM
 70
0
 40
1.0
 41
0.0025
 42
0.00125
 43
3.75
 44
0.00375
 45
0.0
 46
0.0
 47
0.0
 48
0.0
 49
2.5
140
0.0025
141
2.5
142
0.00125
143
0.03937007874
144
100.0
145
0.0
146
0.5
147
0.001
148
0.0
 69
0
 70
0
 71
0
 72
0
 73
0
 74
0
 75
0
 76
0
 77
1
 78
12
 79
3
170
0
171
3
172
1
173
0
174
0
175
0
176
0
177
0
178
0
179
2
271
2
272
2
273
2
274
3
275
0
276
0
277
2
278
46
279
2
280
0
281
0
282
0
283
0
284
8
285
0
286
0
288
1
289
3
290
0
340
4C
371
-2
372
-2
  0
DIMSTYLE
105
83
330
4
100
AcDbSymbolTableRecord
100
AcDbDimStyleTableRecord
  2
EZ_RADIUS
 70
0
 40
1.0
 41
0.25
 42
0.125
 43
3.75
 44
0.375
 45
0.0
 46
0.0
 47
0.0
 48
0.0
 49
2.5
140
0.25
141
0.0
142
0.0
143
0.03937007874
144
100.0
145
0.0
146
0.5
147
0.1
148
0.0
 69
0
 70
0
 71
0
 72
0
 73
0
 74
0
 75
0
 76
0
 77
1
 78
12
 79
3
170
0
171
3
172
0
173
0
174
0
175
0
176
0
177
0
178
0
179
2
271
2
272
2
273
2
274
3
275
0
276
0
277
2
278
46
279
1
280
0
281
0
282
0
283
0
284
8
285
0
286
0
288
1
289
3
290
0
340
4C
342
84
371
-2
372
-2
  0
DIMSTYLE
105
88
330
4
100
AcDbSymbolTableRecord
100
AcDbDimStyleTableRecord
  2
EZ_RADIUS_INSIDE
 70
0
 40
1.0
 41
0.25
 42
0.125
 43
3.75
 44
0.375
 45
0.0
 46
0.0
 47
0.0
 48
0.0
 49
2.5
140
0.25
141
0.0
142
0.0
143
0.03937007874
144
100.0
145
0.0
146
0.5
147
0.1
148
0.0
 69
0
 70
0
 71
0
 72
0
 73
0
 74
0
 75
0
 76
0
 77
0
 78
12
 79
3
170
0
171
3
172
0
173
0
174
1
175
0
176
0
177
0
178
0
179
2
271
2
272
2
273
2
274
3
275
0
276
0
277
2
278
46
279
0
280
0
281
0
282
0
283
0
284
8
285
0
286
0
288
1
289
0
290
0
340
4C
342
84
371
-2
372
-2
  0
DIMSTYLE
105
89
330
4
100
AcDbSymbolTableRecord
100
AcDbDimStyleTableRecord
  2
EZ_CURVED
 70
0
 40
1.0
 41
0.25
 42
0.125
 43
3.75
 44
0.375
 45
0.0
 46
0.0
 47
0.0
 48
0.0
 49
2.5
140
0.25
141
2.5
142
0.0
143
0.03937007874
144
100.0
145
0.0
146
0.5
147
0.1
148
0.0
 69
0
 70
0
 71
0
 72
0
 73
0
 74
0
 75
0
 76
0
 77
1
 78
12
 79
2
 90
2
170
0
171
3
172
1
173
0
174
0
175
0
176
0
177
0
178
0
179
2
271
2
272
2
273
2
274
3
275
0
276
0
277
2
278
46
279
2
280
0
281
0
282
0
283
0
284
8
285
0
286
0
288
1
289
3
290
0
340
4C
371
-2
372
-2
  0
DIMSTYLE
105
8F
330
4
100
AcDbSymbolTableRecord
100
AcDbDimStyleTableRecord
  2
ARCH
 70
0
 40
1.0
 41
2.5
 42
1.0
 43
3.75
 44
1.5
 45
0.0
 46
0.0
 47
0.0
 48
0.0
 49
2.5
140
3.0
141
2.5
142
0.0
143
0.03937007874
144
1.0
145
0.0
146
1.0
147
1.0
148
0.0
 69
0
 70
0
 71
0
 72
0
 73
0
 74
0
 75
0
 76
0
 77
1
 78
8
 79
3
170
0
171
3
172
1
173
0
174
0
175
0
176
0
177
0
178
0
179
2
271
0
272
2
273
2
274
3
275
0
276
0
277
2
278
44
279
0
280
0
281
0
282
0
283
0
284
8
285
0
286
0
288
0
289
3
290
0
340
8E
371
-2
372
-2
  0
ENDTAB
  0
TABLE
  2
BLOCK_RECORD
  5
9
330
0
100
AcDbSymbolTable
 70
19
  0
BLOCK_RECORD
  5
17
330
9
100
AcDbSymbolTableRecord
100
AcDbBlockTableRecord
  2
*Model_Space
340
1A
 70
0
280
1
281
0
  0
BLOCK_RECORD
  5
1B
330
9
100
AcDbSymbolTableRecord
100
AcDbBlockTableRecord
  2
*Paper_Space
340
1E
 70
0
280
1
281
0
  0
BLOCK_RECORD
  5
74
330
9
100
AcDbSymbolTableRecord
100
AcDbBlockTableRecord
  2
_ARCHTICK
340
0
 70
0
280
1
281
0
  0
BLOCK_RECORD
  5
78
330
9
100
AcDbSymbolTableRecord
100
AcDbBlockTableRecord
  2
_CLOSEDFILLED
340
0
 70
0
280
1
281
0
  0
BLOCK_RECORD
  5
84
330
9
100
AcDbSymbolTableRecord
100
AcDbBlockTableRecord
  2
_CLOSEDBLANK
340
0
 70
0
280
1
281
0
  0
BLOCK_RECORD
  5
CD
330
9
100
AcDbSymbolTableRecord
100
AcDbBlockTableRecord
  2
TREE_PLAN
340
0
 70
0
280
1
281
0
  0
BLOCK_RECORD
  5
D6
330
9
100
AcDbSymbolTableRecord
100
AcDbBlockTableRecord
  2
TREE_SMALL
340
0
 70
0
280
1
281
0
  0
BLOCK_RECORD
  5
DB
330
9
100
AcDbSymbolTableRecord
100
AcDbBlockTableRecord
  2
TREE_SECTION
340
0
 70
0
280
1
281
0
  0
BLOCK_RECORD
  5
E0
330
9
100
AcDbSymbolTableRecord
100
AcDbBlockTableRecord
  2
NORTH_ARROW
340
0
 70
0
280
1
281
0
  0
BLOCK_RECORD
  5
E6
330
9
100
AcDbSymbolTableRecord
100
AcDbBlockTableRecord
  2
SCALE_BAR_1000
340
0
 70
0
280
1
281
0
  0
BLOCK_RECORD
  5
F2
330
9
100
AcDbSymbolTableRecord
100
AcDbBlockTableRecord
  2
BRT_STATION
340
0
 70
0
280
1
281
0
  0
BLOCK_RECORD
  5
F8
330
9
100
AcDbSymbolTableRecord
100
AcDbBlockTableRecord
  2
ROUNDABOUT
340
0
 70
0
280
1
281
0
  0
BLOCK_RECORD
  5
FE
330
9
100
AcDbSymbolTableRecord
100
AcDbBlockTableRecord
  2
CAR_PLAN
340
0
 70
0
280
1
281
0
  0
BLOCK_RECORD
  5
104
330
9
100
AcDbSymbolTableRecord
100
AcDbBlockTableRecord
  2
PERSON_SECTION
340
0
 70
0
280
1
281
0
  0
BLOCK_RECORD
  5
10D
330
9
100
AcDbSymbolTableRecord
100
AcDbBlockTableRecord
  2
BLDG_RECT
340
0
 70
0
280
1
281
0
  0
BLOCK_RECORD
  5
112
330
9
100
AcDbSymbolTableRecord
100
AcDbBlockTableRecord
  2
MOSQUE
340
0
 70
0
280
1
281
0
  0
BLOCK_RECORD
  5
181
330
9
100
AcDbSymbolTableRecord
100
AcDbBlockTableRecord
  2
*D1
340
0
 70
0
280
1
281
0
  0
BLOCK_RECORD
  5
1BA
330
9
100
AcDbSymbolTableRecord
100
AcDbBlockTableRecord
  2
*D2
340
0
 70
0
280
1
281
0
  0
BLOCK_RECORD
  5
1E8
330
9
100
AcDbSymbolTableRecord
100
AcDbBlockTableRecord
  2
*D3
340
0
 70
0
280
1
281
0
  0
ENDTAB
  0
ENDSEC
  0
SECTION
  2
BLOCKS
  0
BLOCK
  5
18
330
17
100
AcDbEntity
  8
0
100
AcDbBlockBegin
  2
*Model_Space
 70
0
 10
0.0
 20
0.0
 30
0.0
  3
*Model_Space
  1

  0
ENDBLK
  5
19
330
17
100
AcDbEntity
  8
0
100
AcDbBlockEnd
  0
BLOCK
  5
1C
330
1B
100
AcDbEntity
  8
0
100
AcDbBlockBegin
  2
*Paper_Space
 70
0
 10
0.0
 20
0.0
 30
0.0
  3
*Paper_Space
  1

  0
ENDBLK
  5
1D
330
1B
100
AcDbEntity
  8
0
100
AcDbBlockEnd
  0
BLOCK
  5
75
330
74
100
AcDbEntity
  8
0
100
AcDbBlockBegin
  2
_ARCHTICK
 70
0
 10
0.0
 20
0.0
 30
0.0
  3
_ARCHTICK
  1

  0
LWPOLYLINE
  5
77
330
74
100
AcDbEntity
  8
0
  6
BYBLOCK
 62
0
100
AcDbPolyline
 90
2
 70
0
 43
0.15
 10
-0.5
 20
-0.5
 10
0.5
 20
0.5
  0
ENDBLK
  5
76
330
74
100
AcDbEntity
  8
0
100
AcDbBlockEnd
  0
BLOCK
  5
79
330
78
100
AcDbEntity
  8
0
100
AcDbBlockBegin
  2
_CLOSEDFILLED
 70
0
 10
0.0
 20
0.0
 30
0.0
  3
_CLOSEDFILLED
  1

  0
SOLID
  5
7B
330
78
100
AcDbEntity
  8
0
  6
BYBLOCK
 62
0
100
AcDbTrace
 10
-1.0
 20
0.16439898372402537
 30
0.0
 11
0.0
 21
0.0
 31
0.0
 12
-1.0
 22
-0.16439898372402537
 32
0.0
 13
-1.0
 23
-0.16439898372402537
 33
0.0
  0
ENDBLK
  5
7A
330
78
100
AcDbEntity
  8
0
100
AcDbBlockEnd
  0
BLOCK
  5
85
330
84
100
AcDbEntity
  8
0
100
AcDbBlockBegin
  2
_CLOSEDBLANK
 70
0
 10
0.0
 20
0.0
 30
0.0
  3
_CLOSEDBLANK
  1

  0
LWPOLYLINE
  5
87
330
84
100
AcDbEntity
  8
0
  6
BYBLOCK
 62
0
100
AcDbPolyline
 90
3
 70
1
 10
-1.0
 20
0.16439898372402537
 10
0.0
 20
0.0
 10
-1.0
 20
-0.16439898372402537
  0
ENDBLK
  5
86
330
84
100
AcDbEntity
  8
0
100
AcDbBlockEnd
  0
BLOCK
  5
CE
330
CD
100
AcDbEntity
  8
0
100
AcDbBlockBegin
  2
TREE_PLAN
 70
0
 10
0.0
 20
0.0
 30
0.0
  3
TREE_PLAN
  1

  0
CIRCLE
  5
D0
330
CD
100
AcDbEntity
  8
0
 62
82
370
18
100
AcDbCircle
 10
0.0
 20
0.0
 30
0.0
 40
3.0
  0
CIRCLE
  5
D1
330
CD
100
AcDbEntity
  8
0
 62
94
370
13
100
AcDbCircle
 10
0.0
 20
0.0
 30
0.0
 40
0.5
  0
LINE
  5
D2
330
CD
100
AcDbEntity
  8
0
 62
82
370
5
100
AcDbLine
 10
-2.2
 20
-0.0
 30
0.0
 11
2.2
 21
0.0
 31
0.0
  0
LINE
  5
D3
330
CD
100
AcDbEntity
  8
0
 62
82
370
5
100
AcDbLine
 10
-1.5556349186104048
 20
-1.5556349186104046
 30
0.0
 11
1.5556349186104048
 21
1.5556349186104046
 31
0.0
  0
LINE
  5
D4
330
CD
100
AcDbEntity
  8
0
 62
82
370
5
100
AcDbLine
 10
-1.3471114790620887e-16
 20
-2.2
 30
0.0
 11
1.3471114790620887e-16
 21
2.2
 31
0.0
  0
LINE
  5
D5
330
CD
100
AcDbEntity
  8
0
 62
82
370
5
100
AcDbLine
 10
1.5556349186104046
 20
-1.5556349186104048
 30
0.0
 11
-1.5556349186104046
 21
1.5556349186104048
 31
0.0
  0
ENDBLK
  5
CF
330
CD
100
AcDbEntity
  8
0
100
AcDbBlockEnd
  0
BLOCK
  5
D7
330
D6
100
AcDbEntity
  8
0
100
AcDbBlockBegin
  2
TREE_SMALL
 70
0
 10
0.0
 20
0.0
 30
0.0
  3
TREE_SMALL
  1

  0
CIRCLE
  5
D9
330
D6
100
AcDbEntity
  8
0
 62
82
370
13
100
AcDbCircle
 10
0.0
 20
0.0
 30
0.0
 40
1.5
  0
CIRCLE
  5
DA
330
D6
100
AcDbEntity
  8
0
 62
94
370
9
100
AcDbCircle
 10
0.0
 20
0.0
 30
0.0
 40
0.3
  0
ENDBLK
  5
D8
330
D6
100
AcDbEntity
  8
0
100
AcDbBlockEnd
  0
BLOCK
  5
DC
330
DB
100
AcDbEntity
  8
0
100
AcDbBlockBegin
  2
TREE_SECTION
 70
0
 10
0.0
 20
0.0
 30
0.0
  3
TREE_SECTION
  1

  0
LWPOLYLINE
  5
DE
330
DB
100
AcDbEntity
  8
0
 62
46
370
18
100
AcDbPolyline
 90
4
 70
1
 10
-0.3
 20
0.0
 10
-0.3
 20
3.0
 10
0.3
 20
3.0
 10
0.3
 20
0.0
  0
LWPOLYLINE
  5
DF
330
DB
100
AcDbEntity
  8
0
 62
82
370
18
100
AcDbPolyline
 90
4
 70
1
 10
-2.5
 20
3.0
 42
0.5
 10
0.0
 20
7.0
 42
0.5
 10
2.5
 20
3.0
 42
0.5
 10
0.0
 20
3.5
 42
-0.3
  0
ENDBLK
  5
DD
330
DB
100
AcDbEntity
  8
0
100
AcDbBlockEnd
  0
BLOCK
  5
E1
330
E0
100
AcDbEntity
  8
0
100
AcDbBlockBegin
  2
NORTH_ARROW
 70
0
 10
0.0
 20
0.0
 30
0.0
  3
NORTH_ARROW
  1

  0
LWPOLYLINE
  5
E3
330
E0
100
AcDbEntity
  8
0
 62
7
370
35
100
AcDbPolyline
 90
4
 70
1
 10
0.0
 20
0.0
 10
-4.0
 20
-12.0
 10
0.0
 20
-8.0
 10
4.0
 20
-12.0
  0
HATCH
  5
E4
330
E0
100
AcDbEntity
  8
0
 62
7
100
AcDbHatch
 10
0.0
 20
0.0
 30
0.0
210
0.0
220
0.0
230
1.0
  2
SOLID
 70
1
 71
0
 91
1
 92
3
 72
0
 73
1
 93
3
 10
0.0
 20
0.0
 10
4.0
 20
-12.0
 10
0.0
 20
-8.0
 97
0
 75
0
 76
1
 98
0
  0
TEXT
  5
E5
330
E0
100
AcDbEntity
  8
0
 62
7
100
AcDbText
 10
-2.5
 20
2.0
 30
0.0
 40
5.0
  1
N
  7
TITLE
 11
-2.5
 21
2.0
 31
0.0
100
AcDbText
 73
1
  0
ENDBLK
  5
E2
330
E0
100
AcDbEntity
  8
0
100
AcDbBlockEnd
  0
BLOCK
  5
E7
330
E6
100
AcDbEntity
  8
0
100
AcDbBlockBegin
  2
SCALE_BAR_1000
 70
0
 10
0.0
 20
0.0
 30
0.0
  3
SCALE_BAR_1000
  1

  0
HATCH
  5
E9
330
E6
100
AcDbEntity
  8
0
 62
7
100
AcDbHatch
 10
0.0
 20
0.0
 30
0.0
210
0.0
220
0.0
230
1.0
  2
SOLID
 70
1
 71
0
 91
1
 92
3
 72
0
 73
1
 93
4
 10
0.0
 20
0.0
 10
50.0
 20
0.0
 10
50.0
 20
4.0
 10
0.0
 20
4.0
 97
0
 75
0
 76
1
 98
0
  0
LWPOLYLINE
  5
EA
330
E6
100
AcDbEntity
  8
0
 62
7
370
18
100
AcDbPolyline
 90
4
 70
1
 10
0.0
 20
0.0
 10
50.0
 20
0.0
 10
50.0
 20
4.0
 10
0.0
 20
4.0
  0
LWPOLYLINE
  5
EB
330
E6
100
AcDbEntity
  8
0
 62
7
370
18
100
AcDbPolyline
 90
4
 70
1
 10
50.0
 20
0.0
 10
100.0
 20
0.0
 10
100.0
 20
4.0
 10
50.0
 20
4.0
  0
HATCH
  5
EC
330
E6
100
AcDbEntity
  8
0
 62
7
100
AcDbHatch
 10
0.0
 20
0.0
 30
0.0
210
0.0
220
0.0
230
1.0
  2
SOLID
 70
1
 71
0
 91
1
 92
3
 72
0
 73
1
 93
4
 10
100.0
 20
0.0
 10
150.0
 20
0.0
 10
150.0
 20
4.0
 10
100.0
 20
4.0
 97
0
 75
0
 76
1
 98
0
  0
LWPOLYLINE
  5
ED
330
E6
100
AcDbEntity
  8
0
 62
7
370
18
100
AcDbPolyline
 90
4
 70
1
 10
100.0
 20
0.0
 10
150.0
 20
0.0
 10
150.0
 20
4.0
 10
100.0
 20
4.0
  0
LWPOLYLINE
  5
EE
330
E6
100
AcDbEntity
  8
0
 62
7
370
18
100
AcDbPolyline
 90
4
 70
1
 10
150.0
 20
0.0
 10
200.0
 20
0.0
 10
200.0
 20
4.0
 10
150.0
 20
4.0
  0
TEXT
  5
EF
330
E6
100
AcDbEntity
  8
0
 62
7
100
AcDbText
 10
0.0
 20
-4.0
 30
0.0
 40
3.0
  1
0
  7
LABEL
 72
1
 11
0.0
 21
-4.0
 31
0.0
100
AcDbText
 73
2
  0
TEXT
  5
F0
330
E6
100
AcDbEntity
  8
0
 62
7
100
AcDbText
 10
100.0
 20
-4.0
 30
0.0
 40
3.0
  1
100m
  7
LABEL
 72
1
 11
100.0
 21
-4.0
 31
0.0
100
AcDbText
 73
2
  0
TEXT
  5
F1
330
E6
100
AcDbEntity
  8
0
 62
7
100
AcDbText
 10
200.0
 20
-4.0
 30
0.0
 40
3.0
  1
200m
  7
LABEL
 72
1
 11
200.0
 21
-4.0
 31
0.0
100
AcDbText
 73
2
  0
ENDBLK
  5
E8
330
E6
100
AcDbEntity
  8
0
100
AcDbBlockEnd
  0
BLOCK
  5
F3
330
F2
100
AcDbEntity
  8
0
100
AcDbBlockBegin
  2
BRT_STATION
 70
0
 10
0.0
 20
0.0
 30
0.0
  3
BRT_STATION
  1

  0
LWPOLYLINE
  5
F5
330
F2
100
AcDbEntity
  8
0
 62
1
370
35
100
AcDbPolyline
 90
4
 70
1
 10
-8.0
 20
-4.0
 10
8.0
 20
-4.0
 10
8.0
 20
4.0
 10
-8.0
 20
4.0
  0
LINE
  5
F6
330
F2
100
AcDbEntity
  8
0
 62
1
370
18
100
AcDbLine
 10
-8.0
 20
0.0
 30
0.0
 11
8.0
 21
0.0
 31
0.0
  0
TEXT
  5
F7
330
F2
100
AcDbEntity
  8
0
 62
1
100
AcDbText
 10
0.0
 20
-1.5
 30
0.0
 40
3.0
  1
BRT
  7
LABEL
 72
1
 11
0.0
 21
-1.5
 31
0.0
100
AcDbText
 73
2
  0
ENDBLK
  5
F4
330
F2
100
AcDbEntity
  8
0
100
AcDbBlockEnd
  0
BLOCK
  5
F9
330
F8
100
AcDbEntity
  8
0
100
AcDbBlockBegin
  2
ROUNDABOUT
 70
0
 10
0.0
 20
0.0
 30
0.0
  3
ROUNDABOUT
  1

  0
CIRCLE
  5
FB
330
F8
100
AcDbEntity
  8
0
 62
7
370
35
100
AcDbCircle
 10
0.0
 20
0.0
 30
0.0
 40
15.0
  0
CIRCLE
  5
FC
330
F8
100
AcDbEntity
  8
0
 62
3
370
25
100
AcDbCircle
 10
0.0
 20
0.0
 30
0.0
 40
8.0
  0
HATCH
  5
FD
330
F8
100
AcDbEntity
  8
0
 62
82
100
AcDbHatch
 10
0.0
 20
0.0
 30
0.0
210
0.0
220
0.0
230
1.0
  2
SOLID
 70
1
 71
0
 91
1
 92
1
 93
1
 72
2
 10
0.0
 20
0.0
 40
8
 50
0
 51
360
 73
1
 97
0
 75
0
 76
1
 98
0
  0
ENDBLK
  5
FA
330
F8
100
AcDbEntity
  8
0
100
AcDbBlockEnd
  0
BLOCK
  5
FF
330
FE
100
AcDbEntity
  8
0
100
AcDbBlockBegin
  2
CAR_PLAN
 70
0
 10
0.0
 20
0.0
 30
0.0
  3
CAR_PLAN
  1

  0
LWPOLYLINE
  5
101
330
FE
100
AcDbEntity
  8
0
 62
8
370
13
100
AcDbPolyline
 90
4
 70
1
 10
0.0
 20
0.0
 10
2.5
 20
0.0
 10
2.5
 20
5.0
 10
0.0
 20
5.0
  0
LWPOLYLINE
  5
102
330
FE
100
AcDbEntity
  8
0
 62
8
370
9
100
AcDbPolyline
 90
4
 70
1
 10
0.3
 20
0.5
 10
2.2
 20
0.5
 10
2.2
 20
1.5
 10
0.3
 20
1.5
  0
LWPOLYLINE
  5
103
330
FE
100
AcDbEntity
  8
0
 62
8
370
9
100
AcDbPolyline
 90
4
 70
1
 10
0.3
 20
3.5
 10
2.2
 20
3.5
 10
2.2
 20
4.5
 10
0.3
 20
4.5
  0
ENDBLK
  5
100
330
FE
100
AcDbEntity
  8
0
100
AcDbBlockEnd
  0
BLOCK
  5
105
330
104
100
AcDbEntity
  8
0
100
AcDbBlockBegin
  2
PERSON_SECTION
 70
0
 10
0.0
 20
0.0
 30
0.0
  3
PERSON_SECTION
  1

  0
CIRCLE
  5
107
330
104
100
AcDbEntity
  8
0
 62
7
370
18
100
AcDbCircle
 10
0.0
 20
1.6
 30
0.0
 40
0.2
  0
LINE
  5
108
330
104
100
AcDbEntity
  8
0
 62
7
370
18
100
AcDbLine
 10
0.0
 20
1.4
 30
0.0
 11
0.0
 21
0.7
 31
0.0
  0
LINE
  5
109
330
104
100
AcDbEntity
  8
0
 62
7
370
18
100
AcDbLine
 10
0.0
 20
0.7
 30
0.0
 11
-0.3
 21
0.0
 31
0.0
  0
LINE
  5
10A
330
104
100
AcDbEntity
  8
0
 62
7
370
18
100
AcDbLine
 10
0.0
 20
0.7
 30
0.0
 11
0.3
 21
0.0
 31
0.0
  0
LINE
  5
10B
330
104
100
AcDbEntity
  8
0
 62
7
370
13
100
AcDbLine
 10
0.0
 20
1.2
 30
0.0
 11
-0.25
 21
0.9
 31
0.0
  0
LINE
  5
10C
330
104
100
AcDbEntity
  8
0
 62
7
370
13
100
AcDbLine
 10
0.0
 20
1.2
 30
0.0
 11
0.25
 21
0.9
 31
0.0
  0
ENDBLK
  5
106
330
104
100
AcDbEntity
  8
0
100
AcDbBlockEnd
  0
BLOCK
  5
10E
330
10D
100
AcDbEntity
  8
0
100
AcDbBlockBegin
  2
BLDG_RECT
 70
2
 10
0.0
 20
0.0
 30
0.0
  3
BLDG_RECT
  1

  0
LWPOLYLINE
  5
110
330
10D
100
AcDbEntity
  8
0
 62
7
370
35
100
AcDbPolyline
 90
4
 70
1
 10
0.0
 20
0.0
 10
1.0
 20
0.0
 10
1.0
 20
1.0
 10
0.0
 20
1.0
  0
ATTDEF
  5
111
330
10D
100
AcDbEntity
  8
0
 62
7
100
AcDbText
 10
0.1
 20
-0.15
 30
0.0
 40
0.12
  1

100
AcDbAttributeDefinition
  3

  2
TYPE
 70
0
  0
ENDBLK
  5
10F
330
10D
100
AcDbEntity
  8
0
100
AcDbBlockEnd
  0
BLOCK
  5
113
330
112
100
AcDbEntity
  8
0
100
AcDbBlockBegin
  2
MOSQUE
 70
0
 10
0.0
 20
0.0
 30
0.0
  3
MOSQUE
  1

  0
CIRCLE
  5
115
330
112
100
AcDbEntity
  8
0
 62
170
370
35
100
AcDbCircle
 10
0.0
 20
0.0
 30
0.0
 40
5.0
  0
ARC
  5
116
330
112
100
AcDbEntity
  8
0
 62
170
370
25
100
AcDbCircle
 10
0.0
 20
2.0
 30
0.0
 40
2.0
100
AcDbArc
 50
30.0
 51
330.0
  0
CIRCLE
  5
117
330
112
100
AcDbEntity
  8
0
 62
170
370
18
100
AcDbCircle
 10
1.0
 20
3.5
 30
0.0
 40
0.5
  0
ENDBLK
  5
114
330
112
100
AcDbEntity
  8
0
100
AcDbBlockEnd
  0
BLOCK
  5
182
330
181
100
AcDbEntity
  8
0
100
AcDbBlockBegin
  2
*D1
 70
1
 10
0.0
 20
0.0
 30
0.0
  3
*D1
  1

  0
LINE
  5
184
330
181
100
AcDbEntity
  8
0
100
AcDbLine
 10
200.0
 20
1099.0
 30
0.0
 11
200.0
 21
1095.5
 31
0.0
  0
LINE
  5
185
330
181
100
AcDbEntity
  8
0
100
AcDbLine
 10
237.4
 20
1099.0
 30
0.0
 11
237.4
 21
1095.5
 31
0.0
  0
INSERT
  5
186
330
181
100
AcDbEntity
  8
0
100
AcDbBlockReference
  2
_CLOSEDFILLED
 10
200.0
 20
1097.0
 30
0.0
 41
0.3
 42
0.3
 50
180.0
  0
INSERT
  5
188
330
181
100
AcDbEntity
  8
0
100
AcDbBlockReference
  2
_CLOSEDFILLED
 10
237.4
 20
1097.0
 30
0.0
 41
0.3
 42
0.3
  0
LINE
  5
18A
330
181
100
AcDbEntity
  8
0
100
AcDbLine
 10
200.3
 20
1097.0
 30
0.0
 11
237.1
 21
1097.0
 31
0.0
  0
MTEXT
  5
18B
330
181
100
AcDbEntity
  8
0
100
AcDbMText
 10
218.7
 20
1098.25
 30
0.0
 40
0.5
 71
5
  1
37
  7
DIM
  0
POINT
  5
18C
330
181
100
AcDbEntity
  8
Defpoints
100
AcDbPoint
 10
200.0
 20
1097.0
 30
0.0
  0
POINT
  5
18D
330
181
100
AcDbEntity
  8
Defpoints
100
AcDbPoint
 10
200.0
 20
1100.0
 30
0.0
  0
POINT
  5
18E
330
181
100
AcDbEntity
  8
Defpoints
100
AcDbPoint
 10
237.4
 20
1100.0
 30
0.0
  0
ENDBLK
  5
183
330
181
100
AcDbEntity
  8
0
100
AcDbBlockEnd
  0
BLOCK
  5
1BB
330
1BA
100
AcDbEntity
  8
0
100
AcDbBlockBegin
  2
*D2
 70
1
 10
0.0
 20
0.0
 30
0.0
  3
*D2
  1

  0
LINE
  5
1BD
330
1BA
100
AcDbEntity
  8
0
100
AcDbLine
 10
200.0
 20
649.0
 30
0.0
 11
200.0
 21
646.0
 31
0.0
  0
LINE
  5
1BE
330
1BA
100
AcDbEntity
  8
0
100
AcDbLine
 10
225.1
 20
649.0
 30
0.0
 11
225.1
 21
646.0
 31
0.0
  0
INSERT
  5
1BF
330
1BA
100
AcDbEntity
  8
0
100
AcDbBlockReference
  2
_CLOSEDFILLED
 10
200.0
 20
647.5
 30
0.0
 41
0.25
 42
0.25
 50
180.0
  0
INSERT
  5
1C1
330
1BA
100
AcDbEntity
  8
0
100
AcDbBlockReference
  2
_CLOSEDFILLED
 10
225.1
 20
647.5
 30
0.0
 41
0.25
 42
0.25
  0
LINE
  5
1C3
330
1BA
100
AcDbEntity
  8
0
100
AcDbLine
 10
200.25
 20
647.5
 30
0.0
 11
224.85
 21
647.5
 31
0.0
  0
MTEXT
  5
1C4
330
1BA
100
AcDbEntity
  8
0
100
AcDbMText
 10
212.55
 20
648.7
 30
0.0
 40
0.4
 71
5
  1
25
  7
DIM
  0
POINT
  5
1C5
330
1BA
100
AcDbEntity
  8
Defpoints
100
AcDbPoint
 10
200.0
 20
647.5
 30
0.0
  0
POINT
  5
1C6
330
1BA
100
AcDbEntity
  8
Defpoints
100
AcDbPoint
 10
200.0
 20
650.0
 30
0.0
  0
POINT
  5
1C7
330
1BA
100
AcDbEntity
  8
Defpoints
100
AcDbPoint
 10
225.1
 20
650.0
 30
0.0
  0
ENDBLK
  5
1BC
330
1BA
100
AcDbEntity
  8
0
100
AcDbBlockEnd
  0
BLOCK
  5
1E9
330
1E8
100
AcDbEntity
  8
0
100
AcDbBlockBegin
  2
*D3
 70
1
 10
0.0
 20
0.0
 30
0.0
  3
*D3
  1

  0
LINE
  5
1EB
330
1E8
100
AcDbEntity
  8
0
100
AcDbLine
 10
200.0
 20
199.0
 30
0.0
 11
200.0
 21
196.5
 31
0.0
  0
LINE
  5
1EC
330
1E8
100
AcDbEntity
  8
0
100
AcDbLine
 10
214.5
 20
199.0
 30
0.0
 11
214.5
 21
196.5
 31
0.0
  0
INSERT
  5
1ED
330
1E8
100
AcDbEntity
  8
0
100
AcDbBlockReference
  2
_CLOSEDFILLED
 10
200.0
 20
198.0
 30
0.0
 41
0.2
 42
0.2
 50
180.0
  0
INSERT
  5
1EF
330
1E8
100
AcDbEntity
  8
0
100
AcDbBlockReference
  2
_CLOSEDFILLED
 10
214.5
 20
198.0
 30
0.0
 41
0.2
 42
0.2
  0
LINE
  5
1F1
330
1E8
100
AcDbEntity
  8
0
100
AcDbLine
 10
200.2
 20
198.0
 30
0.0
 11
214.3
 21
198.0
 31
0.0
  0
MTEXT
  5
1F2
330
1E8
100
AcDbEntity
  8
0
100
AcDbMText
 10
207.25
 20
199.175
 30
0.0
 40
0.35
 71
5
  1
14
  7
DIM
  0
POINT
  5
1F3
330
1E8
100
AcDbEntity
  8
Defpoints
100
AcDbPoint
 10
200.0
 20
198.0
 30
0.0
  0
POINT
  5
1F4
330
1E8
100
AcDbEntity
  8
Defpoints
100
AcDbPoint
 10
200.0
 20
200.0
 30
0.0
  0
POINT
  5
1F5
330
1E8
100
AcDbEntity
  8
Defpoints
100
AcDbPoint
 10
214.5
 20
200.0
 30
0.0
  0
ENDBLK
  5
1EA
330
1E8
100
AcDbEntity
  8
0
100
AcDbBlockEnd
  0
ENDSEC
  0
SECTION
  2
ENTITIES
  0
LWPOLYLINE
  5
118
330
17
100
AcDbEntity
  8
BORDER
100
AcDbPolyline
 90
4
 70
1
 10
-50.0
 20
-100.0
 10
2150.0
 20
-100.0
 10
2150.0
 20
1550.0
 10
-50.0
 20
1550.0
  0
LWPOLYLINE
  5
119
330
17
100
AcDbEntity
  8
TITLEBLOCK
100
AcDbPolyline
 90
4
 70
1
 10
1650.0
 20
-100.0
 10
2150.0
 20
-100.0
 10
2150.0
 20
50.0
 10
1650.0
 20
50.0
  0
LINE
  5
11A
330
17
100
AcDbEntity
  8
TITLEBLOCK
100
AcDbLine
 10
1650.0
 20
-50.0
 30
0.0
 11
2150.0
 21
-50.0
 31
0.0
  0
LINE
  5
11B
330
17
100
AcDbEntity
  8
TITLEBLOCK
100
AcDbLine
 10
1650.0
 20
0.0
 30
0.0
 11
2150.0
 21
0.0
 31
0.0
  0
LINE
  5
11C
330
17
100
AcDbEntity
  8
TITLEBLOCK
100
AcDbLine
 10
1900.0
 20
-100.0
 30
0.0
 11
1900.0
 21
-50.0
 31
0.0
  0
TEXT
  5
11D
330
17
100
AcDbEntity
  8
TEXT_TITLE
100
AcDbText
 10
1900.0
 20
25.0
 30
0.0
 40
12.0
  1
AL-TAL NEW CITY
  7
TITLE
 72
1
 11
1900.0
 21
25.0
 31
0.0
100
AcDbText
 73
2
  0
TEXT
  5
11E
330
17
100
AcDbEntity
  8
TEXT_TITLE
100
AcDbText
 10
1900.0
 20
8.0
 30
0.0
 40
6.0
  1
Mandatory Distribution Zone Replanning Competition
  7
SUBTITLE
 72
1
 11
1900.0
 21
8.0
 31
0.0
100
AcDbText
 73
2
  0
TEXT
  5
11F
330
17
100
AcDbEntity
  8
TEXT_TITLE
100
AcDbText
 10
1900.0
 20
-20.0
 30
0.0
 40
10.0
  1
ROAD CROSS SECTIONS
  7
TITLE
 72
1
 11
1900.0
 21
-20.0
 31
0.0
100
AcDbText
 73
2
  0
TEXT
  5
120
330
17
100
AcDbEntity
  8
TEXT_NOTE
100
AcDbText
 10
1900.0
 20
-35.0
 30
0.0
 40
5.0
  1
Primary 40m | Secondary 27m | Local 16m
  7
NOTE
 72
1
 11
1900.0
 21
-35.0
 31
0.0
100
AcDbText
 73
2
  0
TEXT
  5
121
330
17
100
AcDbEntity
  8
TEXT_LABEL
100
AcDbText
 10
1775.0
 20
-70.0
 30
0.0
 40
5.0
  1
Scale: 1:100
  7
LABEL
 72
1
 11
1775.0
 21
-70.0
 31
0.0
100
AcDbText
 73
2
  0
TEXT
  5
122
330
17
100
AcDbEntity
  8
TEXT_NOTE
100
AcDbText
 10
1775.0
 20
-85.0
 30
0.0
 40
4.0
  1
Date: March 2026
  7
NOTE
 72
1
 11
1775.0
 21
-85.0
 31
0.0
100
AcDbText
 73
2
  0
TEXT
  5
123
330
17
100
AcDbEntity
  8
TEXT_LABEL
100
AcDbText
 10
2025.0
 20
-70.0
 30
0.0
 40
5.0
  1
Sheet: 6/6
  7
LABEL
 72
1
 11
2025.0
 21
-70.0
 31
0.0
100
AcDbText
 73
2
  0
TEXT
  5
124
330
17
100
AcDbEntity
  8
TEXT_NOTE
100
AcDbText
 10
2025.0
 20
-85.0
 30
0.0
 40
4.0
  1
Dwg: CS-001
  7
NOTE
 72
1
 11
2025.0
 21
-85.0
 31
0.0
100
AcDbText
 73
2
  0
TEXT
  5
125
330
17
100
AcDbEntity
  8
TEXT_NOTE
100
AcDbText
 10
1900.0
 20
-97.0
 30
0.0
 40
4.0
  1
Syrian Arab Republic - Rif Dimashq - Al-Tal
  7
NOTE
 72
1
 11
1900.0
 21
-97.0
 31
0.0
100
AcDbText
 73
2
  0
LINE
  5
126
330
17
100
AcDbEntity
  8
GROUND
100
AcDbLine
 10
198.0
 20
1100.0
 30
0.0
 11
242.0
 21
1100.0
 31
0.0
  0
LWPOLYLINE
  5
127
330
17
100
AcDbEntity
  8
SIDEWALK_CS
100
AcDbPolyline
 90
4
 70
1
 10
200.0
 20
1100.0
 10
202.5
 20
1100.0
 10
202.5
 20
1100.15
 10
200.0
 20
1100.15
  0
HATCH
  5
128
330
17
100
AcDbEntity
  8
HATCH_SIDEWALK
100
AcDbHatch
 10
0.0
 20
0.0
 30
0.0
210
0.0
220
0.0
230
1.0
  2
SOLID
 70
1
 71
0
 91
1
 92
3
 72
0
 73
1
 93
4
 10
200.0
 20
1100.0
 10
202.5
 20
1100.0
 10
202.5
 20
1100.15
 10
200.0
 20
1100.15
 97
0
 75
0
 76
1
 98
0
  0
MTEXT
  5
129
330
17
100
AcDbEntity
  8
TEXT_NOTE
100
AcDbMText
 10
201.25
 20
1099.5
 30
0.0
 40
0.3
 41
2.5
 71
2
  1
Sidewalk\P2.5m
  7
NOTE
  0
LWPOLYLINE
  5
12A
330
17
100
AcDbEntity
  8
TREE_CS
100
AcDbPolyline
 90
4
 70
1
 10
202.5
 20
1100.0
 10
204.5
 20
1100.0
 10
204.5
 20
1100.1
 10
202.5
 20
1100.1
  0
HATCH
  5
12B
330
17
100
AcDbEntity
  8
HATCH_MEDIAN
100
AcDbHatch
 10
0.0
 20
0.0
 30
0.0
210
0.0
220
0.0
230
1.0
  2
SOLID
 70
1
 71
0
 91
1
 92
3
 72
0
 73
1
 93
4
 10
202.5
 20
1100.0
 10
204.5
 20
1100.0
 10
204.5
 20
1100.1
 10
202.5
 20
1100.1
 97
0
 75
0
 76
1
 98
0
  0
MTEXT
  5
12C
330
17
100
AcDbEntity
  8
TEXT_NOTE
100
AcDbMText
 10
203.5
 20
1099.5
 30
0.0
 40
0.3
 41
2.0
 71
2
  1
Trees\P2.0m
  7
NOTE
  0
LWPOLYLINE
  5
12D
330
17
100
AcDbEntity
  8
SIDEWALK_CS
100
AcDbPolyline
 90
4
 70
1
 10
204.5
 20
1100.0
 10
205.2
 20
1100.0
 10
205.2
 20
1100.12
 10
204.5
 20
1100.12
  0
HATCH
  5
12E
330
17
100
AcDbEntity
  8
HATCH_SIDEWALK
100
AcDbHatch
 10
0.0
 20
0.0
 30
0.0
210
0.0
220
0.0
230
1.0
  2
SOLID
 70
1
 71
0
 91
1
 92
3
 72
0
 73
1
 93
4
 10
204.5
 20
1100.0
 10
205.2
 20
1100.0
 10
205.2
 20
1100.12
 10
204.5
 20
1100.12
 97
0
 75
0
 76
1
 98
0
  0
MTEXT
  5
12F
330
17
100
AcDbEntity
  8
TEXT_NOTE
100
AcDbMText
 10
204.85
 20
1099.5
 30
0.0
 40
0.3
 41
0.7
 71
2
  1
Buffer\P0.7m
  7
NOTE
  0
LWPOLYLINE
  5
130
330
17
100
AcDbEntity
  8
BIKE_CS
100
AcDbPolyline
 90
4
 70
1
 10
205.2
 20
1100.0
 10
207.2
 20
1100.0
 10
207.2
 20
1100.12
 10
205.2
 20
1100.12
  0
HATCH
  5
131
330
17
100
AcDbEntity
  8
HATCH_BIKE
100
AcDbHatch
 10
0.0
 20
0.0
 30
0.0
210
0.0
220
0.0
230
1.0
  2
SOLID
 70
1
 71
0
 91
1
 92
3
 72
0
 73
1
 93
4
 10
205.2
 20
1100.0
 10
207.2
 20
1100.0
 10
207.2
 20
1100.12
 10
205.2
 20
1100.12
 97
0
 75
0
 76
1
 98
0
  0
MTEXT
  5
132
330
17
100
AcDbEntity
  8
TEXT_NOTE
100
AcDbMText
 10
206.2
 20
1099.5
 30
0.0
 40
0.3
 41
2.0
 71
2
  1
Bike\P2.0m
  7
NOTE
  0
LWPOLYLINE
  5
133
330
17
100
AcDbEntity
  8
ASPHALT
100
AcDbPolyline
 90
4
 70
1
 10
207.2
 20
1100.0
 10
210.45
 20
1100.0
 10
210.45
 20
1100.18
 10
207.2
 20
1100.18
  0
HATCH
  5
134
330
17
100
AcDbEntity
  8
HATCH_ASPHALT
100
AcDbHatch
 10
0.0
 20
0.0
 30
0.0
210
0.0
220
0.0
230
1.0
  2
SOLID
 70
1
 71
0
 91
1
 92
3
 72
0
 73
1
 93
4
 10
207.2
 20
1100.0
 10
210.45
 20
1100.0
 10
210.45
 20
1100.18
 10
207.2
 20
1100.18
 97
0
 75
0
 76
1
 98
0
  0
MTEXT
  5
135
330
17
100
AcDbEntity
  8
TEXT_NOTE
100
AcDbMText
 10
208.825
 20
1099.5
 30
0.0
 40
0.3
 41
3.25
 71
2
  1
Lane\P3.25m
  7
NOTE
  0
LWPOLYLINE
  5
136
330
17
100
AcDbEntity
  8
ASPHALT
100
AcDbPolyline
 90
4
 70
1
 10
210.45
 20
1100.0
 10
213.7
 20
1100.0
 10
213.7
 20
1100.18
 10
210.45
 20
1100.18
  0
HATCH
  5
137
330
17
100
AcDbEntity
  8
HATCH_ASPHALT
100
AcDbHatch
 10
0.0
 20
0.0
 30
0.0
210
0.0
220
0.0
230
1.0
  2
SOLID
 70
1
 71
0
 91
1
 92
3
 72
0
 73
1
 93
4
 10
210.45
 20
1100.0
 10
213.7
 20
1100.0
 10
213.7
 20
1100.18
 10
210.45
 20
1100.18
 97
0
 75
0
 76
1
 98
0
  0
MTEXT
  5
138
330
17
100
AcDbEntity
  8
TEXT_NOTE
100
AcDbMText
 10
212.075
 20
1099.5
 30
0.0
 40
0.3
 41
3.25
 71
2
  1
Lane\P3.25m
  7
NOTE
  0
LWPOLYLINE
  5
139
330
17
100
AcDbEntity
  8
BRT_CS
100
AcDbPolyline
 90
4
 70
1
 10
213.7
 20
1100.0
 10
217.2
 20
1100.0
 10
217.2
 20
1100.18
 10
213.7
 20
1100.18
  0
HATCH
  5
13A
330
17
100
AcDbEntity
  8
HATCH_BRT
100
AcDbHatch
 10
0.0
 20
0.0
 30
0.0
210
0.0
220
0.0
230
1.0
  2
SOLID
 70
1
 71
0
 91
1
 92
3
 72
0
 73
1
 93
4
 10
213.7
 20
1100.0
 10
217.2
 20
1100.0
 10
217.2
 20
1100.18
 10
213.7
 20
1100.18
 97
0
 75
0
 76
1
 98
0
  0
MTEXT
  5
13B
330
17
100
AcDbEntity
  8
TEXT_NOTE
100
AcDbMText
 10
215.45
 20
1099.5
 30
0.0
 40
0.3
 41
3.5
 71
2
  1
BRT\P3.5m
  7
NOTE
  0
LWPOLYLINE
  5
13C
330
17
100
AcDbEntity
  8
MEDIAN_CS
100
AcDbPolyline
 90
4
 70
1
 10
217.2
 20
1100.0
 10
220.2
 20
1100.0
 10
220.2
 20
1100.25
 10
217.2
 20
1100.25
  0
HATCH
  5
13D
330
17
100
AcDbEntity
  8
HATCH_MEDIAN
100
AcDbHatch
 10
0.0
 20
0.0
 30
0.0
210
0.0
220
0.0
230
1.0
  2
SOLID
 70
1
 71
0
 91
1
 92
3
 72
0
 73
1
 93
4
 10
217.2
 20
1100.0
 10
220.2
 20
1100.0
 10
220.2
 20
1100.25
 10
217.2
 20
1100.25
 97
0
 75
0
 76
1
 98
0
  0
MTEXT
  5
13E
330
17
100
AcDbEntity
  8
TEXT_NOTE
100
AcDbMText
 10
218.7
 20
1099.5
 30
0.0
 40
0.3
 41
3.0
 71
2
  1
Median\P3.0m
  7
NOTE
  0
LWPOLYLINE
  5
13F
330
17
100
AcDbEntity
  8
BRT_CS
100
AcDbPolyline
 90
4
 70
1
 10
220.2
 20
1100.0
 10
223.7
 20
1100.0
 10
223.7
 20
1100.18
 10
220.2
 20
1100.18
  0
HATCH
  5
140
330
17
100
AcDbEntity
  8
HATCH_BRT
100
AcDbHatch
 10
0.0
 20
0.0
 30
0.0
210
0.0
220
0.0
230
1.0
  2
SOLID
 70
1
 71
0
 91
1
 92
3
 72
0
 73
1
 93
4
 10
220.2
 20
1100.0
 10
223.7
 20
1100.0
 10
223.7
 20
1100.18
 10
220.2
 20
1100.18
 97
0
 75
0
 76
1
 98
0
  0
MTEXT
  5
141
330
17
100
AcDbEntity
  8
TEXT_NOTE
100
AcDbMText
 10
221.95
 20
1099.5
 30
0.0
 40
0.3
 41
3.5
 71
2
  1
BRT\P3.5m
  7
NOTE
  0
LWPOLYLINE
  5
142
330
17
100
AcDbEntity
  8
ASPHALT
100
AcDbPolyline
 90
4
 70
1
 10
223.7
 20
1100.0
 10
226.95
 20
1100.0
 10
226.95
 20
1100.18
 10
223.7
 20
1100.18
  0
HATCH
  5
143
330
17
100
AcDbEntity
  8
HATCH_ASPHALT
100
AcDbHatch
 10
0.0
 20
0.0
 30
0.0
210
0.0
220
0.0
230
1.0
  2
SOLID
 70
1
 71
0
 91
1
 92
3
 72
0
 73
1
 93
4
 10
223.7
 20
1100.0
 10
226.95
 20
1100.0
 10
226.95
 20
1100.18
 10
223.7
 20
1100.18
 97
0
 75
0
 76
1
 98
0
  0
MTEXT
  5
144
330
17
100
AcDbEntity
  8
TEXT_NOTE
100
AcDbMText
 10
225.325
 20
1099.5
 30
0.0
 40
0.3
 41
3.25
 71
2
  1
Lane\P3.25m
  7
NOTE
  0
LWPOLYLINE
  5
145
330
17
100
AcDbEntity
  8
ASPHALT
100
AcDbPolyline
 90
4
 70
1
 10
226.95
 20
1100.0
 10
230.2
 20
1100.0
 10
230.2
 20
1100.18
 10
226.95
 20
1100.18
  0
HATCH
  5
146
330
17
100
AcDbEntity
  8
HATCH_ASPHALT
100
AcDbHatch
 10
0.0
 20
0.0
 30
0.0
210
0.0
220
0.0
230
1.0
  2
SOLID
 70
1
 71
0
 91
1
 92
3
 72
0
 73
1
 93
4
 10
226.95
 20
1100.0
 10
230.2
 20
1100.0
 10
230.2
 20
1100.18
 10
226.95
 20
1100.18
 97
0
 75
0
 76
1
 98
0
  0
MTEXT
  5
147
330
17
100
AcDbEntity
  8
TEXT_NOTE
100
AcDbMText
 10
228.575
 20
1099.5
 30
0.0
 40
0.3
 41
3.25
 71
2
  1
Lane\P3.25m
  7
NOTE
  0
LWPOLYLINE
  5
148
330
17
100
AcDbEntity
  8
BIKE_CS
100
AcDbPolyline
 90
4
 70
1
 10
230.2
 20
1100.0
 10
232.2
 20
1100.0
 10
232.2
 20
1100.12
 10
230.2
 20
1100.12
  0
HATCH
  5
149
330
17
100
AcDbEntity
  8
HATCH_BIKE
100
AcDbHatch
 10
0.0
 20
0.0
 30
0.0
210
0.0
220
0.0
230
1.0
  2
SOLID
 70
1
 71
0
 91
1
 92
3
 72
0
 73
1
 93
4
 10
230.2
 20
1100.0
 10
232.2
 20
1100.0
 10
232.2
 20
1100.12
 10
230.2
 20
1100.12
 97
0
 75
0
 76
1
 98
0
  0
MTEXT
  5
14A
330
17
100
AcDbEntity
  8
TEXT_NOTE
100
AcDbMText
 10
231.2
 20
1099.5
 30
0.0
 40
0.3
 41
2.0
 71
2
  1
Bike\P2.0m
  7
NOTE
  0
LWPOLYLINE
  5
14B
330
17
100
AcDbEntity
  8
SIDEWALK_CS
100
AcDbPolyline
 90
4
 70
1
 10
232.2
 20
1100.0
 10
232.89999999999998
 20
1100.0
 10
232.89999999999998
 20
1100.12
 10
232.2
 20
1100.12
  0
HATCH
  5
14C
330
17
100
AcDbEntity
  8
HATCH_SIDEWALK
100
AcDbHatch
 10
0.0
 20
0.0
 30
0.0
210
0.0
220
0.0
230
1.0
  2
SOLID
 70
1
 71
0
 91
1
 92
3
 72
0
 73
1
 93
4
 10
232.2
 20
1100.0
 10
232.89999999999998
 20
1100.0
 10
232.89999999999998
 20
1100.12
 10
232.2
 20
1100.12
 97
0
 75
0
 76
1
 98
0
  0
MTEXT
  5
14D
330
17
100
AcDbEntity
  8
TEXT_NOTE
100
AcDbMText
 10
232.54999999999998
 20
1099.5
 30
0.0
 40
0.3
 41
0.7
 71
2
  1
Buffer\P0.7m
  7
NOTE
  0
LWPOLYLINE
  5
14E
330
17
100
AcDbEntity
  8
TREE_CS
100
AcDbPolyline
 90
4
 70
1
 10
232.9
 20
1100.0
 10
234.9
 20
1100.0
 10
234.9
 20
1100.1
 10
232.9
 20
1100.1
  0
HATCH
  5
14F
330
17
100
AcDbEntity
  8
HATCH_MEDIAN
100
AcDbHatch
 10
0.0
 20
0.0
 30
0.0
210
0.0
220
0.0
230
1.0
  2
SOLID
 70
1
 71
0
 91
1
 92
3
 72
0
 73
1
 93
4
 10
232.9
 20
1100.0
 10
234.9
 20
1100.0
 10
234.9
 20
1100.1
 10
232.9
 20
1100.1
 97
0
 75
0
 76
1
 98
0
  0
MTEXT
  5
150
330
17
100
AcDbEntity
  8
TEXT_NOTE
100
AcDbMText
 10
233.9
 20
1099.5
 30
0.0
 40
0.3
 41
2.0
 71
2
  1
Trees\P2.0m
  7
NOTE
  0
LWPOLYLINE
  5
151
330
17
100
AcDbEntity
  8
SIDEWALK_CS
100
AcDbPolyline
 90
4
 70
1
 10
234.9
 20
1100.0
 10
237.4
 20
1100.0
 10
237.4
 20
1100.15
 10
234.9
 20
1100.15
  0
HATCH
  5
152
330
17
100
AcDbEntity
  8
HATCH_SIDEWALK
100
AcDbHatch
 10
0.0
 20
0.0
 30
0.0
210
0.0
220
0.0
230
1.0
  2
SOLID
 70
1
 71
0
 91
1
 92
3
 72
0
 73
1
 93
4
 10
234.9
 20
1100.0
 10
237.4
 20
1100.0
 10
237.4
 20
1100.15
 10
234.9
 20
1100.15
 97
0
 75
0
 76
1
 98
0
  0
MTEXT
  5
153
330
17
100
AcDbEntity
  8
TEXT_NOTE
100
AcDbMText
 10
236.15
 20
1099.5
 30
0.0
 40
0.3
 41
2.5
 71
2
  1
Sidewalk\P2.5m
  7
NOTE
  0
INSERT
  5
154
330
17
100
AcDbEntity
  8
TREE_CS
100
AcDbBlockReference
  2
TREE_SECTION
 10
203.5
 20
1100.1
 30
0.0
 41
0.5
 42
0.5
  0
INSERT
  5
156
330
17
100
AcDbEntity
  8
TREE_CS
100
AcDbBlockReference
  2
TREE_SECTION
 10
218.7
 20
1100.1
 30
0.0
 41
0.5
 42
0.5
  0
INSERT
  5
158
330
17
100
AcDbEntity
  8
TREE_CS
100
AcDbBlockReference
  2
TREE_SECTION
 10
233.9
 20
1100.1
 30
0.0
 41
0.5
 42
0.5
  0
INSERT
  5
15A
330
17
100
AcDbEntity
  8
ANNOTATION
100
AcDbBlockReference
  2
PERSON_SECTION
 10
201.2
 20
1100.15
 30
0.0
 41
1.5
 42
1.5
  0
INSERT
  5
15C
330
17
100
AcDbEntity
  8
ANNOTATION
100
AcDbBlockReference
  2
PERSON_SECTION
 10
236.0
 20
1100.15
 30
0.0
 41
1.5
 42
1.5
  0
LWPOLYLINE
  5
15E
330
17
100
AcDbEntity
  8
BRT_CS
100
AcDbPolyline
 90
4
 70
1
 10
214.5
 20
1100.18
 10
217.0
 20
1100.18
 10
217.0
 20
1101.5
 10
214.5
 20
1101.5
  0
TEXT
  5
15F
330
17
100
AcDbEntity
  8
BRT_CS
100
AcDbText
 10
215.75
 20
1100.8
 30
0.0
 40
0.3
  1
BUS
  7
NOTE
 72
1
 11
215.75
 21
1100.8
 31
0.0
100
AcDbText
 73
2
  0
LINE
  5
160
330
17
100
AcDbEntity
  8
ROADS_CENTER
370
5
100
AcDbLine
 10
208.83
 20
1100.02
 30
0.0
 11
208.83
 21
1100.05
 31
0.0
  0
LINE
  5
161
330
17
100
AcDbEntity
  8
ROADS_CENTER
370
5
100
AcDbLine
 10
208.83
 20
1100.08
 30
0.0
 11
208.83
 21
1100.11
 31
0.0
  0
LINE
  5
162
330
17
100
AcDbEntity
  8
ROADS_CENTER
370
5
100
AcDbLine
 10
208.83
 20
1100.1399999999999
 30
0.0
 11
208.83
 21
1100.1699999999998
 31
0.0
  0
LINE
  5
163
330
17
100
AcDbEntity
  8
ROADS_CENTER
370
5
100
AcDbLine
 10
208.83
 20
1100.2
 30
0.0
 11
208.83
 21
1100.23
 31
0.0
  0
LINE
  5
164
330
17
100
AcDbEntity
  8
ROADS_CENTER
370
5
100
AcDbLine
 10
208.83
 20
1100.26
 30
0.0
 11
208.83
 21
1100.29
 31
0.0
  0
LINE
  5
165
330
17
100
AcDbEntity
  8
ROADS_CENTER
370
5
100
AcDbLine
 10
208.83
 20
1100.32
 30
0.0
 11
208.83
 21
1100.35
 31
0.0
  0
LINE
  5
166
330
17
100
AcDbEntity
  8
ROADS_CENTER
370
5
100
AcDbLine
 10
208.83
 20
1100.3799999999999
 30
0.0
 11
208.83
 21
1100.4099999999999
 31
0.0
  0
LINE
  5
167
330
17
100
AcDbEntity
  8
ROADS_CENTER
370
5
100
AcDbLine
 10
208.83
 20
1100.44
 30
0.0
 11
208.83
 21
1100.47
 31
0.0
  0
LINE
  5
168
330
17
100
AcDbEntity
  8
ROADS_CENTER
370
5
100
AcDbLine
 10
212.08
 20
1100.02
 30
0.0
 11
212.08
 21
1100.05
 31
0.0
  0
LINE
  5
169
330
17
100
AcDbEntity
  8
ROADS_CENTER
370
5
100
AcDbLine
 10
212.08
 20
1100.08
 30
0.0
 11
212.08
 21
1100.11
 31
0.0
  0
LINE
  5
16A
330
17
100
AcDbEntity
  8
ROADS_CENTER
370
5
100
AcDbLine
 10
212.08
 20
1100.1399999999999
 30
0.0
 11
212.08
 21
1100.1699999999998
 31
0.0
  0
LINE
  5
16B
330
17
100
AcDbEntity
  8
ROADS_CENTER
370
5
100
AcDbLine
 10
212.08
 20
1100.2
 30
0.0
 11
212.08
 21
1100.23
 31
0.0
  0
LINE
  5
16C
330
17
100
AcDbEntity
  8
ROADS_CENTER
370
5
100
AcDbLine
 10
212.08
 20
1100.26
 30
0.0
 11
212.08
 21
1100.29
 31
0.0
  0
LINE
  5
16D
330
17
100
AcDbEntity
  8
ROADS_CENTER
370
5
100
AcDbLine
 10
212.08
 20
1100.32
 30
0.0
 11
212.08
 21
1100.35
 31
0.0
  0
LINE
  5
16E
330
17
100
AcDbEntity
  8
ROADS_CENTER
370
5
100
AcDbLine
 10
212.08
 20
1100.3799999999999
 30
0.0
 11
212.08
 21
1100.4099999999999
 31
0.0
  0
LINE
  5
16F
330
17
100
AcDbEntity
  8
ROADS_CENTER
370
5
100
AcDbLine
 10
212.08
 20
1100.44
 30
0.0
 11
212.08
 21
1100.47
 31
0.0
  0
LINE
  5
170
330
17
100
AcDbEntity
  8
ROADS_CENTER
370
5
100
AcDbLine
 10
225.32999999999998
 20
1100.02
 30
0.0
 11
225.32999999999998
 21
1100.05
 31
0.0
  0
LINE
  5
171
330
17
100
AcDbEntity
  8
ROADS_CENTER
370
5
100
AcDbLine
 10
225.32999999999998
 20
1100.08
 30
0.0
 11
225.32999999999998
 21
1100.11
 31
0.0
  0
LINE
  5
172
330
17
100
AcDbEntity
  8
ROADS_CENTER
370
5
100
AcDbLine
 10
225.32999999999998
 20
1100.1399999999999
 30
0.0
 11
225.32999999999998
 21
1100.1699999999998
 31
0.0
  0
LINE
  5
173
330
17
100
AcDbEntity
  8
ROADS_CENTER
370
5
100
AcDbLine
 10
225.32999999999998
 20
1100.2
 30
0.0
 11
225.32999999999998
 21
1100.23
 31
0.0
  0
LINE
  5
174
330
17
100
AcDbEntity
  8
ROADS_CENTER
370
5
100
AcDbLine
 10
225.32999999999998
 20
1100.26
 30
0.0
 11
225.32999999999998
 21
1100.29
 31
0.0
  0
LINE
  5
175
330
17
100
AcDbEntity
  8
ROADS_CENTER
370
5
100
AcDbLine
 10
225.32999999999998
 20
1100.32
 30
0.0
 11
225.32999999999998
 21
1100.35
 31
0.0
  0
LINE
  5
176
330
17
100
AcDbEntity
  8
ROADS_CENTER
370
5
100
AcDbLine
 10
225.32999999999998
 20
1100.3799999999999
 30
0.0
 11
225.32999999999998
 21
1100.4099999999999
 31
0.0
  0
LINE
  5
177
330
17
100
AcDbEntity
  8
ROADS_CENTER
370
5
100
AcDbLine
 10
225.32999999999998
 20
1100.44
 30
0.0
 11
225.32999999999998
 21
1100.47
 31
0.0
  0
LINE
  5
178
330
17
100
AcDbEntity
  8
ROADS_CENTER
370
5
100
AcDbLine
 10
228.57999999999998
 20
1100.02
 30
0.0
 11
228.57999999999998
 21
1100.05
 31
0.0
  0
LINE
  5
179
330
17
100
AcDbEntity
  8
ROADS_CENTER
370
5
100
AcDbLine
 10
228.57999999999998
 20
1100.08
 30
0.0
 11
228.57999999999998
 21
1100.11
 31
0.0
  0
LINE
  5
17A
330
17
100
AcDbEntity
  8
ROADS_CENTER
370
5
100
AcDbLine
 10
228.57999999999998
 20
1100.1399999999999
 30
0.0
 11
228.57999999999998
 21
1100.1699999999998
 31
0.0
  0
LINE
  5
17B
330
17
100
AcDbEntity
  8
ROADS_CENTER
370
5
100
AcDbLine
 10
228.57999999999998
 20
1100.2
 30
0.0
 11
228.57999999999998
 21
1100.23
 31
0.0
  0
LINE
  5
17C
330
17
100
AcDbEntity
  8
ROADS_CENTER
370
5
100
AcDbLine
 10
228.57999999999998
 20
1100.26
 30
0.0
 11
228.57999999999998
 21
1100.29
 31
0.0
  0
LINE
  5
17D
330
17
100
AcDbEntity
  8
ROADS_CENTER
370
5
100
AcDbLine
 10
228.57999999999998
 20
1100.32
 30
0.0
 11
228.57999999999998
 21
1100.35
 31
0.0
  0
LINE
  5
17E
330
17
100
AcDbEntity
  8
ROADS_CENTER
370
5
100
AcDbLine
 10
228.57999999999998
 20
1100.3799999999999
 30
0.0
 11
228.57999999999998
 21
1100.4099999999999
 31
0.0
  0
LINE
  5
17F
330
17
100
AcDbEntity
  8
ROADS_CENTER
370
5
100
AcDbLine
 10
228.57999999999998
 20
1100.44
 30
0.0
 11
228.57999999999998
 21
1100.47
 31
0.0
  0
DIMENSION
  5
180
330
17
100
AcDbEntity
  8
0
100
AcDbDimension
280
0
  2
*D1
  3
ARCH
 10
200.0
 20
1097.0
 30
0.0
 11
218.7
 21
1098.25
 31
0.0
 70
32
 71
5
  1
<>
100
AcDbAlignedDimension
 13
200.0
 23
1100.0
 33
0.0
 14
237.4
 24
1100.0
 34
0.0
 50
0.0
100
AcDbRotatedDimension
1001
ACAD
1000
DSTYLE
1002
{
1070
140
1040
0.5
1070
41
1040
0.3
1002
}
  0
TEXT
  5
18F
330
17
100
AcDbEntity
  8
TEXT_TITLE
100
AcDbText
 10
218.7
 20
1105.0
 30
0.0
 40
0.8
  1
PRIMARY ARTERIAL - 40m ROW - WITH BRT
  7
TITLE
 72
1
 11
218.7
 21
1105.0
 31
0.0
100
AcDbText
 73
2
  0
TEXT
  5
190
330
17
100
AcDbEntity
  8
TEXT_NOTE
100
AcDbText
 10
218.7
 20
1104.0
 30
0.0
 40
0.4
  1
Design Speed: 50 km/h | 2 vehicle lanes + BRT per direction | Protected bike lane
  7
NOTE
 72
1
 11
218.7
 21
1104.0
 31
0.0
100
AcDbText
 73
2
  0
LINE
  5
191
330
17
100
AcDbEntity
  8
GROUND
100
AcDbLine
 10
198.0
 20
650.0
 30
0.0
 11
229.0
 21
650.0
 31
0.0
  0
LWPOLYLINE
  5
192
330
17
100
AcDbEntity
  8
SIDEWALK_CS
100
AcDbPolyline
 90
4
 70
1
 10
200.0
 20
650.0
 10
202.0
 20
650.0
 10
202.0
 20
650.15
 10
200.0
 20
650.15
  0
HATCH
  5
193
330
17
100
AcDbEntity
  8
HATCH_SIDEWALK
100
AcDbHatch
 10
0.0
 20
0.0
 30
0.0
210
0.0
220
0.0
230
1.0
  2
SOLID
 70
1
 71
0
 91
1
 92
3
 72
0
 73
1
 93
4
 10
200.0
 20
650.0
 10
202.0
 20
650.0
 10
202.0
 20
650.15
 10
200.0
 20
650.15
 97
0
 75
0
 76
1
 98
0
  0
MTEXT
  5
194
330
17
100
AcDbEntity
  8
TEXT_NOTE
100
AcDbMText
 10
201.0
 20
649.6
 30
0.0
 40
0.25
 41
2.0
 71
2
  1
SW\P2.0m
  7
NOTE
  0
LWPOLYLINE
  5
195
330
17
100
AcDbEntity
  8
TREE_CS
100
AcDbPolyline
 90
4
 70
1
 10
202.0
 20
650.0
 10
203.5
 20
650.0
 10
203.5
 20
650.1
 10
202.0
 20
650.1
  0
HATCH
  5
196
330
17
100
AcDbEntity
  8
HATCH_MEDIAN
100
AcDbHatch
 10
0.0
 20
0.0
 30
0.0
210
0.0
220
0.0
230
1.0
  2
SOLID
 70
1
 71
0
 91
1
 92
3
 72
0
 73
1
 93
4
 10
202.0
 20
650.0
 10
203.5
 20
650.0
 10
203.5
 20
650.1
 10
202.0
 20
650.1
 97
0
 75
0
 76
1
 98
0
  0
MTEXT
  5
197
330
17
100
AcDbEntity
  8
TEXT_NOTE
100
AcDbMText
 10
202.75
 20
649.6
 30
0.0
 40
0.25
 41
1.5
 71
2
  1
Tree\P1.5m
  7
NOTE
  0
LWPOLYLINE
  5
198
330
17
100
AcDbEntity
  8
BIKE_CS
100
AcDbPolyline
 90
4
 70
1
 10
203.5
 20
650.0
 10
205.3
 20
650.0
 10
205.3
 20
650.12
 10
203.5
 20
650.12
  0
HATCH
  5
199
330
17
100
AcDbEntity
  8
HATCH_BIKE
100
AcDbHatch
 10
0.0
 20
0.0
 30
0.0
210
0.0
220
0.0
230
1.0
  2
SOLID
 70
1
 71
0
 91
1
 92
3
 72
0
 73
1
 93
4
 10
203.5
 20
650.0
 10
205.3
 20
650.0
 10
205.3
 20
650.12
 10
203.5
 20
650.12
 97
0
 75
0
 76
1
 98
0
  0
MTEXT
  5
19A
330
17
100
AcDbEntity
  8
TEXT_NOTE
100
AcDbMText
 10
204.4
 20
649.6
 30
0.0
 40
0.25
 41
1.8
 71
2
  1
Bike\P1.8m
  7
NOTE
  0
LWPOLYLINE
  5
19B
330
17
100
AcDbEntity
  8
ASPHALT
100
AcDbPolyline
 90
4
 70
1
 10
205.3
 20
650.0
 10
208.3
 20
650.0
 10
208.3
 20
650.18
 10
205.3
 20
650.18
  0
HATCH
  5
19C
330
17
100
AcDbEntity
  8
HATCH_ASPHALT
100
AcDbHatch
 10
0.0
 20
0.0
 30
0.0
210
0.0
220
0.0
230
1.0
  2
SOLID
 70
1
 71
0
 91
1
 92
3
 72
0
 73
1
 93
4
 10
205.3
 20
650.0
 10
208.3
 20
650.0
 10
208.3
 20
650.18
 10
205.3
 20
650.18
 97
0
 75
0
 76
1
 98
0
  0
MTEXT
  5
19D
330
17
100
AcDbEntity
  8
TEXT_NOTE
100
AcDbMText
 10
206.8
 20
649.6
 30
0.0
 40
0.25
 41
3.0
 71
2
  1
Lane\P3.0m
  7
NOTE
  0
LWPOLYLINE
  5
19E
330
17
100
AcDbEntity
  8
ASPHALT
100
AcDbPolyline
 90
4
 70
1
 10
208.3
 20
650.0
 10
211.3
 20
650.0
 10
211.3
 20
650.18
 10
208.3
 20
650.18
  0
HATCH
  5
19F
330
17
100
AcDbEntity
  8
HATCH_ASPHALT
100
AcDbHatch
 10
0.0
 20
0.0
 30
0.0
210
0.0
220
0.0
230
1.0
  2
SOLID
 70
1
 71
0
 91
1
 92
3
 72
0
 73
1
 93
4
 10
208.3
 20
650.0
 10
211.3
 20
650.0
 10
211.3
 20
650.18
 10
208.3
 20
650.18
 97
0
 75
0
 76
1
 98
0
  0
MTEXT
  5
1A0
330
17
100
AcDbEntity
  8
TEXT_NOTE
100
AcDbMText
 10
209.8
 20
649.6
 30
0.0
 40
0.25
 41
3.0
 71
2
  1
Lane\P3.0m
  7
NOTE
  0
LWPOLYLINE
  5
1A1
330
17
100
AcDbEntity
  8
MEDIAN_CS
100
AcDbPolyline
 90
4
 70
1
 10
211.3
 20
650.0
 10
213.8
 20
650.0
 10
213.8
 20
650.22
 10
211.3
 20
650.22
  0
HATCH
  5
1A2
330
17
100
AcDbEntity
  8
HATCH_MEDIAN
100
AcDbHatch
 10
0.0
 20
0.0
 30
0.0
210
0.0
220
0.0
230
1.0
  2
SOLID
 70
1
 71
0
 91
1
 92
3
 72
0
 73
1
 93
4
 10
211.3
 20
650.0
 10
213.8
 20
650.0
 10
213.8
 20
650.22
 10
211.3
 20
650.22
 97
0
 75
0
 76
1
 98
0
  0
MTEXT
  5
1A3
330
17
100
AcDbEntity
  8
TEXT_NOTE
100
AcDbMText
 10
212.55
 20
649.6
 30
0.0
 40
0.25
 41
2.5
 71
2
  1
Median\P2.5m
  7
NOTE
  0
LWPOLYLINE
  5
1A4
330
17
100
AcDbEntity
  8
ASPHALT
100
AcDbPolyline
 90
4
 70
1
 10
213.8
 20
650.0
 10
216.8
 20
650.0
 10
216.8
 20
650.18
 10
213.8
 20
650.18
  0
HATCH
  5
1A5
330
17
100
AcDbEntity
  8
HATCH_ASPHALT
100
AcDbHatch
 10
0.0
 20
0.0
 30
0.0
210
0.0
220
0.0
230
1.0
  2
SOLID
 70
1
 71
0
 91
1
 92
3
 72
0
 73
1
 93
4
 10
213.8
 20
650.0
 10
216.8
 20
650.0
 10
216.8
 20
650.18
 10
213.8
 20
650.18
 97
0
 75
0
 76
1
 98
0
  0
MTEXT
  5
1A6
330
17
100
AcDbEntity
  8
TEXT_NOTE
100
AcDbMText
 10
215.3
 20
649.6
 30
0.0
 40
0.25
 41
3.0
 71
2
  1
Lane\P3.0m
  7
NOTE
  0
LWPOLYLINE
  5
1A7
330
17
100
AcDbEntity
  8
ASPHALT
100
AcDbPolyline
 90
4
 70
1
 10
216.8
 20
650.0
 10
219.8
 20
650.0
 10
219.8
 20
650.18
 10
216.8
 20
650.18
  0
HATCH
  5
1A8
330
17
100
AcDbEntity
  8
HATCH_ASPHALT
100
AcDbHatch
 10
0.0
 20
0.0
 30
0.0
210
0.0
220
0.0
230
1.0
  2
SOLID
 70
1
 71
0
 91
1
 92
3
 72
0
 73
1
 93
4
 10
216.8
 20
650.0
 10
219.8
 20
650.0
 10
219.8
 20
650.18
 10
216.8
 20
650.18
 97
0
 75
0
 76
1
 98
0
  0
MTEXT
  5
1A9
330
17
100
AcDbEntity
  8
TEXT_NOTE
100
AcDbMText
 10
218.3
 20
649.6
 30
0.0
 40
0.25
 41
3.0
 71
2
  1
Lane\P3.0m
  7
NOTE
  0
LWPOLYLINE
  5
1AA
330
17
100
AcDbEntity
  8
BIKE_CS
100
AcDbPolyline
 90
4
 70
1
 10
219.8
 20
650.0
 10
221.60000000000002
 20
650.0
 10
221.60000000000002
 20
650.12
 10
219.8
 20
650.12
  0
HATCH
  5
1AB
330
17
100
AcDbEntity
  8
HATCH_BIKE
100
AcDbHatch
 10
0.0
 20
0.0
 30
0.0
210
0.0
220
0.0
230
1.0
  2
SOLID
 70
1
 71
0
 91
1
 92
3
 72
0
 73
1
 93
4
 10
219.8
 20
650.0
 10
221.60000000000002
 20
650.0
 10
221.60000000000002
 20
650.12
 10
219.8
 20
650.12
 97
0
 75
0
 76
1
 98
0
  0
MTEXT
  5
1AC
330
17
100
AcDbEntity
  8
TEXT_NOTE
100
AcDbMText
 10
220.70000000000002
 20
649.6
 30
0.0
 40
0.25
 41
1.8
 71
2
  1
Bike\P1.8m
  7
NOTE
  0
LWPOLYLINE
  5
1AD
330
17
100
AcDbEntity
  8
TREE_CS
100
AcDbPolyline
 90
4
 70
1
 10
221.6
 20
650.0
 10
223.1
 20
650.0
 10
223.1
 20
650.1
 10
221.6
 20
650.1
  0
HATCH
  5
1AE
330
17
100
AcDbEntity
  8
HATCH_MEDIAN
100
AcDbHatch
 10
0.0
 20
0.0
 30
0.0
210
0.0
220
0.0
230
1.0
  2
SOLID
 70
1
 71
0
 91
1
 92
3
 72
0
 73
1
 93
4
 10
221.6
 20
650.0
 10
223.1
 20
650.0
 10
223.1
 20
650.1
 10
221.6
 20
650.1
 97
0
 75
0
 76
1
 98
0
  0
MTEXT
  5
1AF
330
17
100
AcDbEntity
  8
TEXT_NOTE
100
AcDbMText
 10
222.35
 20
649.6
 30
0.0
 40
0.25
 41
1.5
 71
2
  1
Tree\P1.5m
  7
NOTE
  0
LWPOLYLINE
  5
1B0
330
17
100
AcDbEntity
  8
SIDEWALK_CS
100
AcDbPolyline
 90
4
 70
1
 10
223.1
 20
650.0
 10
225.1
 20
650.0
 10
225.1
 20
650.15
 10
223.1
 20
650.15
  0
HATCH
  5
1B1
330
17
100
AcDbEntity
  8
HATCH_SIDEWALK
100
AcDbHatch
 10
0.0
 20
0.0
 30
0.0
210
0.0
220
0.0
230
1.0
  2
SOLID
 70
1
 71
0
 91
1
 92
3
 72
0
 73
1
 93
4
 10
223.1
 20
650.0
 10
225.1
 20
650.0
 10
225.1
 20
650.15
 10
223.1
 20
650.15
 97
0
 75
0
 76
1
 98
0
  0
MTEXT
  5
1B2
330
17
100
AcDbEntity
  8
TEXT_NOTE
100
AcDbMText
 10
224.1
 20
649.6
 30
0.0
 40
0.25
 41
2.0
 71
2
  1
SW\P2.0m
  7
NOTE
  0
INSERT
  5
1B3
330
17
100
AcDbEntity
  8
TREE_CS
100
AcDbBlockReference
  2
TREE_SECTION
 10
202.75
 20
650.1
 30
0.0
 41
0.4
 42
0.4
  0
INSERT
  5
1B5
330
17
100
AcDbEntity
  8
TREE_CS
100
AcDbBlockReference
  2
TREE_SECTION
 10
212.55
 20
650.1
 30
0.0
 41
0.4
 42
0.4
  0
INSERT
  5
1B7
330
17
100
AcDbEntity
  8
TREE_CS
100
AcDbBlockReference
  2
TREE_SECTION
 10
222.35
 20
650.1
 30
0.0
 41
0.4
 42
0.4
  0
DIMENSION
  5
1B9
330
17
100
AcDbEntity
  8
0
100
AcDbDimension
280
0
  2
*D2
  3
ARCH
 10
200.0
 20
647.5
 30
0.0
 11
212.55
 21
648.7
 31
0.0
 70
32
 71
5
  1
<>
100
AcDbAlignedDimension
 13
200.0
 23
650.0
 33
0.0
 14
225.1
 24
650.0
 34
0.0
 50
0.0
100
AcDbRotatedDimension
1001
ACAD
1000
DSTYLE
1002
{
1070
140
1040
0.4
1070
41
1040
0.25
1002
}
  0
TEXT
  5
1C8
330
17
100
AcDbEntity
  8
TEXT_TITLE
100
AcDbText
 10
212.5
 20
654.0
 30
0.0
 40
0.7
  1
SECONDARY COLLECTOR - 27m ROW
  7
TITLE
 72
1
 11
212.5
 21
654.0
 31
0.0
100
AcDbText
 73
2
  0
TEXT
  5
1C9
330
17
100
AcDbEntity
  8
TEXT_NOTE
100
AcDbText
 10
212.5
 20
653.2
 30
0.0
 40
0.35
  1
Design Speed: 40 km/h | 2 lanes per direction | Buffered bike lane
  7
NOTE
 72
1
 11
212.5
 21
653.2
 31
0.0
100
AcDbText
 73
2
  0
LINE
  5
1CA
330
17
100
AcDbEntity
  8
GROUND
100
AcDbLine
 10
198.0
 20
200.0
 30
0.0
 11
218.0
 21
200.0
 31
0.0
  0
LWPOLYLINE
  5
1CB
330
17
100
AcDbEntity
  8
BUILDINGS
370
35
100
AcDbPolyline
 90
4
 70
1
 10
195.0
 20
200.0
 10
195.0
 20
206.0
 10
199.0
 20
206.0
 10
199.0
 20
200.0
  0
LWPOLYLINE
  5
1CC
330
17
100
AcDbEntity
  8
BUILDINGS
370
13
100
AcDbPolyline
 90
4
 70
1
 10
195.5
 20
202.0
 10
195.5
 20
204.0
 10
197.5
 20
204.0
 10
197.5
 20
202.0
  0
LWPOLYLINE
  5
1CD
330
17
100
AcDbEntity
  8
BUILDINGS
370
35
100
AcDbPolyline
 90
4
 70
1
 10
217.0
 20
200.0
 10
217.0
 20
206.0
 10
215.0
 20
206.0
 10
215.0
 20
200.0
  0
LWPOLYLINE
  5
1CE
330
17
100
AcDbEntity
  8
SIDEWALK_CS
100
AcDbPolyline
 90
4
 70
1
 10
200.0
 20
200.0
 10
202.0
 20
200.0
 10
202.0
 20
200.15
 10
200.0
 20
200.15
  0
HATCH
  5
1CF
330
17
100
AcDbEntity
  8
HATCH_SIDEWALK
100
AcDbHatch
 10
0.0
 20
0.0
 30
0.0
210
0.0
220
0.0
230
1.0
  2
SOLID
 70
1
 71
0
 91
1
 92
3
 72
0
 73
1
 93
4
 10
200.0
 20
200.0
 10
202.0
 20
200.0
 10
202.0
 20
200.15
 10
200.0
 20
200.15
 97
0
 75
0
 76
1
 98
0
  0
MTEXT
  5
1D0
330
17
100
AcDbEntity
  8
TEXT_NOTE
100
AcDbMText
 10
201.0
 20
199.7
 30
0.0
 40
0.22
 41
2.5
 71
2
  1
SW\P2.0m
  7
NOTE
  0
LWPOLYLINE
  5
1D1
330
17
100
AcDbEntity
  8
TREE_CS
100
AcDbPolyline
 90
4
 70
1
 10
202.0
 20
200.0
 10
203.5
 20
200.0
 10
203.5
 20
200.1
 10
202.0
 20
200.1
  0
HATCH
  5
1D2
330
17
100
AcDbEntity
  8
HATCH_MEDIAN
100
AcDbHatch
 10
0.0
 20
0.0
 30
0.0
210
0.0
220
0.0
230
1.0
  2
SOLID
 70
1
 71
0
 91
1
 92
3
 72
0
 73
1
 93
4
 10
202.0
 20
200.0
 10
203.5
 20
200.0
 10
203.5
 20
200.1
 10
202.0
 20
200.1
 97
0
 75
0
 76
1
 98
0
  0
MTEXT
  5
1D3
330
17
100
AcDbEntity
  8
TEXT_NOTE
100
AcDbMText
 10
202.75
 20
199.7
 30
0.0
 40
0.22
 41
2.0
 71
2
  1
Tree\P1.5m
  7
NOTE
  0
LWPOLYLINE
  5
1D4
330
17
100
AcDbEntity
  8
ASPHALT
100
AcDbPolyline
 90
4
 70
1
 10
203.5
 20
200.0
 10
205.5
 20
200.0
 10
205.5
 20
200.12
 10
203.5
 20
200.12
  0
HATCH
  5
1D5
330
17
100
AcDbEntity
  8
HATCH_ASPHALT
100
AcDbHatch
 10
0.0
 20
0.0
 30
0.0
210
0.0
220
0.0
230
1.0
  2
SOLID
 70
1
 71
0
 91
1
 92
3
 72
0
 73
1
 93
4
 10
203.5
 20
200.0
 10
205.5
 20
200.0
 10
205.5
 20
200.12
 10
203.5
 20
200.12
 97
0
 75
0
 76
1
 98
0
  0
MTEXT
  5
1D6
330
17
100
AcDbEntity
  8
TEXT_NOTE
100
AcDbMText
 10
204.5
 20
199.7
 30
0.0
 40
0.22
 41
2.5
 71
2
  1
Park\P2.0m
  7
NOTE
  0
LWPOLYLINE
  5
1D7
330
17
100
AcDbEntity
  8
ASPHALT
100
AcDbPolyline
 90
4
 70
1
 10
205.5
 20
200.0
 10
211.0
 20
200.0
 10
211.0
 20
200.18
 10
205.5
 20
200.18
  0
HATCH
  5
1D8
330
17
100
AcDbEntity
  8
HATCH_ASPHALT
100
AcDbHatch
 10
0.0
 20
0.0
 30
0.0
210
0.0
220
0.0
230
1.0
  2
SOLID
 70
1
 71
0
 91
1
 92
3
 72
0
 73
1
 93
4
 10
205.5
 20
200.0
 10
211.0
 20
200.0
 10
211.0
 20
200.18
 10
205.5
 20
200.18
 97
0
 75
0
 76
1
 98
0
  0
MTEXT
  5
1D9
330
17
100
AcDbEntity
  8
TEXT_NOTE
100
AcDbMText
 10
208.25
 20
199.7
 30
0.0
 40
0.22
 41
6.0
 71
2
  1
Shared Carriageway\P5.5m
  7
NOTE
  0
LWPOLYLINE
  5
1DA
330
17
100
AcDbEntity
  8
TREE_CS
100
AcDbPolyline
 90
4
 70
1
 10
211.0
 20
200.0
 10
212.5
 20
200.0
 10
212.5
 20
200.1
 10
211.0
 20
200.1
  0
HATCH
  5
1DB
330
17
100
AcDbEntity
  8
HATCH_MEDIAN
100
AcDbHatch
 10
0.0
 20
0.0
 30
0.0
210
0.0
220
0.0
230
1.0
  2
SOLID
 70
1
 71
0
 91
1
 92
3
 72
0
 73
1
 93
4
 10
211.0
 20
200.0
 10
212.5
 20
200.0
 10
212.5
 20
200.1
 10
211.0
 20
200.1
 97
0
 75
0
 76
1
 98
0
  0
MTEXT
  5
1DC
330
17
100
AcDbEntity
  8
TEXT_NOTE
100
AcDbMText
 10
211.75
 20
199.7
 30
0.0
 40
0.22
 41
2.0
 71
2
  1
Tree\P1.5m
  7
NOTE
  0
LWPOLYLINE
  5
1DD
330
17
100
AcDbEntity
  8
SIDEWALK_CS
100
AcDbPolyline
 90
4
 70
1
 10
212.5
 20
200.0
 10
214.5
 20
200.0
 10
214.5
 20
200.15
 10
212.5
 20
200.15
  0
HATCH
  5
1DE
330
17
100
AcDbEntity
  8
HATCH_SIDEWALK
100
AcDbHatch
 10
0.0
 20
0.0
 30
0.0
210
0.0
220
0.0
230
1.0
  2
SOLID
 70
1
 71
0
 91
1
 92
3
 72
0
 73
1
 93
4
 10
212.5
 20
200.0
 10
214.5
 20
200.0
 10
214.5
 20
200.15
 10
212.5
 20
200.15
 97
0
 75
0
 76
1
 98
0
  0
MTEXT
  5
1DF
330
17
100
AcDbEntity
  8
TEXT_NOTE
100
AcDbMText
 10
213.5
 20
199.7
 30
0.0
 40
0.22
 41
2.5
 71
2
  1
SW\P2.0m
  7
NOTE
  0
INSERT
  5
1E0
330
17
100
AcDbEntity
  8
TREE_CS
100
AcDbBlockReference
  2
TREE_SECTION
 10
202.75
 20
200.1
 30
0.0
 41
0.35
 42
0.35
  0
INSERT
  5
1E2
330
17
100
AcDbEntity
  8
TREE_CS
100
AcDbBlockReference
  2
TREE_SECTION
 10
211.75
 20
200.1
 30
0.0
 41
0.35
 42
0.35
  0
LWPOLYLINE
  5
1E4
330
17
100
AcDbEntity
  8
ASPHALT
370
13
100
AcDbPolyline
 90
4
 70
1
 10
203.8
 20
200.12
 10
205.2
 20
200.12
 10
205.2
 20
200.9
 10
203.8
 20
200.9
  0
INSERT
  5
1E5
330
17
100
AcDbEntity
  8
ANNOTATION
100
AcDbBlockReference
  2
PERSON_SECTION
 10
201.0
 20
200.15
 30
0.0
 41
1.2
 42
1.2
  0
DIMENSION
  5
1E7
330
17
100
AcDbEntity
  8
0
100
AcDbDimension
280
0
  2
*D3
  3
ARCH
 10
200.0
 20
198.0
 30
0.0
 11
207.25
 21
199.175
 31
0.0
 70
32
 71
5
  1
<>
100
AcDbAlignedDimension
 13
200.0
 23
200.0
 33
0.0
 14
214.5
 24
200.0
 34
0.0
 50
0.0
100
AcDbRotatedDimension
1001
ACAD
1000
DSTYLE
1002
{
1070
140
1040
0.35
1070
41
1040
0.2
1002
}
  0
TEXT
  5
1F6
330
17
100
AcDbEntity
  8
TEXT_TITLE
100
AcDbText
 10
207.25
 20
208.0
 30
0.0
 40
0.6
  1
LOCAL RESIDENTIAL STREET - 16m ROW (Woonerf / Shared Space)
  7
TITLE
 72
1
 11
207.25
 21
208.0
 31
0.0
100
AcDbText
 73
2
  0
TEXT
  5
1F7
330
17
100
AcDbEntity
  8
TEXT_NOTE
100
AcDbText
 10
207.25
 20
207.2
 30
0.0
 40
0.3
  1
Design Speed: 20 km/h | Traffic calming | Shared surface
  7
NOTE
 72
1
 11
207.25
 21
207.2
 31
0.0
100
AcDbText
 73
2
  0
ENDSEC
  0
SECTION
  2
OBJECTS
  0
DICTIONARY
  5
A
330
0
100
AcDbDictionary
281
1
  3
ACAD_COLOR
350
B
  3
ACAD_GROUP
350
C
  3
ACAD_LAYOUT
350
D
  3
ACAD_MATERIAL
350
E
  3
ACAD_MLEADERSTYLE
350
F
  3
ACAD_MLINESTYLE
350
10
  3
ACAD_PLOTSETTINGS
350
11
  3
ACAD_PLOTSTYLENAME
350
12
  3
ACAD_SCALELIST
350
14
  3
ACAD_TABLESTYLE
350
15
  3
ACAD_VISUALSTYLE
350
16
  3
EZDXF_META
350
2D
  0
DICTIONARY
  5
B
330
A
100
AcDbDictionary
281
1
  0
DICTIONARY
  5
C
330
A
100
AcDbDictionary
281
1
  0
DICTIONARY
  5
D
330
A
100
AcDbDictionary
281
1
  3
Model
350
1A
  3
Layout1
350
1E
  0
DICTIONARY
  5
E
330
A
100
AcDbDictionary
281
1
  3
ByBlock
350
1F
  3
ByLayer
350
20
  3
Global
350
21
  0
DICTIONARY
  5
F
330
A
100
AcDbDictionary
281
1
  3
Standard
350
2C
  0
DICTIONARY
  5
10
330
A
100
AcDbDictionary
281
1
  3
Standard
350
22
  0
DICTIONARY
  5
11
330
A
100
AcDbDictionary
281
1
  0
ACDBDICTIONARYWDFLT
  5
12
330
A
100
AcDbDictionary
281
1
  3
Normal
350
13
100
AcDbDictionaryWithDefault
340
13
  0
ACDBPLACEHOLDER
  5
13
330
12
  0
DICTIONARY
  5
14
330
A
100
AcDbDictionary
281
1
  0
DICTIONARY
  5
15
330
A
100
AcDbDictionary
281
1
  0
DICTIONARY
  5
16
330
A
100
AcDbDictionary
281
1
  3
2dWireframe
350
5A
  3
Basic
350
5B
  3
Brighten
350
5C
  3
ColorChange
350
5D
  3
Conceptual
350
5E
  3
Dim
350
5F
  3
EdgeColorOff
350
60
  3
Facepattern
350
61
  3
Flat
350
62
  3
FlatWithEdges
350
63
  3
Gouraud
350
64
  3
GouraudWithEdges
350
65
  3
Hidden
350
66
  3
JitterOff
350
67
  3
Linepattern
350
68
  3
Modeling
350
69
  3
OverhangOff
350
6A
  3
Realistic
350
6B
  3
Shaded
350
6C
  3
Shaded with edges
350
6D
  3
Shades of Gray
350
6E
  3
Sketchy
350
6F
  3
Thicken
350
70
  3
Wireframe
350
71
  3
X-Ray
350
72
  0
LAYOUT
  5
1A
330
D
100
AcDbPlotSettings
  1

  4
A3
  6

 40
7.5
 41
20.0
 42
7.5
 43
20.0
 44
420.0
 45
297.0
 46
0.0
 47
0.0
 48
0.0
 49
0.0
140
0.0
141
0.0
142
1.0
143
1.0
 70
1024
 72
1
 73
0
 74
5
  7

 75
16
 76
0
 77
2
 78
300
147
1.0
148
0.0
149
0.0
100
AcDbLayout
  1
Model
 70
1
 71
0
 10
0.0
 20
0.0
 11
420.0
 21
297.0
 12
0.0
 22
0.0
 32
0.0
 14
1e+20
 24
1e+20
 34
1e+20
 15
-1e+20
 25
-1e+20
 35
-1e+20
146
0.0
 13
0.0
 23
0.0
 33
0.0
 16
1.0
 26
0.0
 36
0.0
 17
0.0
 27
1.0
 37
0.0
 76
1
330
17
  0
LAYOUT
  5
1E
330
D
100
AcDbPlotSettings
  1

  4
A3
  6

 40
7.5
 41
20.0
 42
7.5
 43
20.0
 44
420.0
 45
297.0
 46
0.0
 47
0.0
 48
0.0
 49
0.0
140
0.0
141
0.0
142
1.0
143
1.0
 70
0
 72
1
 73
0
 74
5
  7

 75
16
 76
0
 77
2
 78
300
147
1.0
148
0.0
149
0.0
100
AcDbLayout
  1
Layout1
 70
1
 71
1
 10
0.0
 20
0.0
 11
420.0
 21
297.0
 12
0.0
 22
0.0
 32
0.0
 14
1e+20
 24
1e+20
 34
1e+20
 15
-1e+20
 25
-1e+20
 35
-1e+20
146
0.0
 13
0.0
 23
0.0
 33
0.0
 16
1.0
 26
0.0
 36
0.0
 17
0.0
 27
1.0
 37
0.0
 76
1
330
1B
  0
MATERIAL
  5
1F
102
{ACAD_REACTORS
330
E
102
}
330
E
100
AcDbMaterial
  1
ByBlock
  2

 70
0
 40
1.0
 71
1
 41
1.0
 91
-1023410177
 42
1.0
 72
1
  3

 73
1
 74
1
 75
1
 44
0.5
 73
0
 45
1.0
 46
1.0
 77
1
  4

 78
1
 79
1
170
1
 48
1.0
171
1
  6

172
1
173
1
174
1
140
1.0
141
1.0
175
1
  7

176
1
177
1
178
1
143
1.0
179
1
  8

270
1
271
1
272
1
145
1.0
146
1.0
273
1
  9

274
1
275
1
276
1
 42
1.0
 72
1
  3

 73
1
 74
1
 75
1
 94
63
  0
MATERIAL
  5
20
102
{ACAD_REACTORS
330
E
102
}
330
E
100
AcDbMaterial
  1
ByLayer
  2

 70
0
 40
1.0
 71
1
 41
1.0
 91
-1023410177
 42
1.0
 72
1
  3

 73
1
 74
1
 75
1
 44
0.5
 73
0
 45
1.0
 46
1.0
 77
1
  4

 78
1
 79
1
170
1
 48
1.0
171
1
  6

172
1
173
1
174
1
140
1.0
141
1.0
175
1
  7

176
1
177
1
178
1
143
1.0
179
1
  8

270
1
271
1
272
1
145
1.0
146
1.0
273
1
  9

274
1
275
1
276
1
 42
1.0
 72
1
  3

 73
1
 74
1
 75
1
 94
63
  0
MATERIAL
  5
21
102
{ACAD_REACTORS
330
E
102
}
330
E
100
AcDbMaterial
  1
Global
  2

 70
0
 40
1.0
 71
1
 41
1.0
 91
-1023410177
 42
1.0
 72
1
  3

 73
1
 74
1
 75
1
 44
0.5
 73
0
 45
1.0
 46
1.0
 77
1
  4

 78
1
 79
1
170
1
 48
1.0
171
1
  6

172
1
173
1
174
1
140
1.0
141
1.0
175
1
  7

176
1
177
1
178
1
143
1.0
179
1
  8

270
1
271
1
272
1
145
1.0
146
1.0
273
1
  9

274
1
275
1
276
1
 42
1.0
 72
1
  3

 73
1
 74
1
 75
1
 94
63
  0
MLINESTYLE
  5
22
102
{ACAD_REACTORS
330
10
102
}
330
10
100
AcDbMlineStyle
  2
Standard
 70
0
  3

 62
256
 51
90.0
 52
90.0
 71
2
 49
0.5
 62
256
  6
BYLAYER
 49
-0.5
 62
256
  6
BYLAYER
  0
MLEADERSTYLE
  5
2C
102
{ACAD_REACTORS
330
F
102
}
330
F
100
AcDbMLeaderStyle
179
2
170
2
171
1
172
0
 90
2
 40
0.0
 41
0.0
173
1
 91
-1056964608
 92
-2
290
1
 42
2.0
291
1
 43
8.0
  3
Standard
 44
4.0
300

342
29
174
1
175
1
176
0
178
1
 93
-1056964608
 45
4.0
292
0
297
0
 46
4.0
 94
-1056964608
 47
1.0
 49
1.0
140
1.0
294
1
141
0.0
177
0
142
1.0
295
0
296
0
143
3.75
271
0
272
9
273
9
  0
DICTIONARY
  5
2D
330
A
100
AcDbDictionary
280
1
281
1
  3
CREATED_BY_EZDXF
350
2E
  3
WRITTEN_BY_EZDXF
350
1FA
  0
DICTIONARYVAR
  5
2E
330
2D
100
DictionaryVariables
280
0
  1
1.4.3 @ 2026-03-19T14:36:18.692406+00:00
  0
VISUALSTYLE
  5
5A
102
{ACAD_REACTORS
330
16
102
}
330
16
100
AcDbVisualStyle
  2
2dWireframe
 70
4
 90
0
 40
0.6
 62
7
290
0
291
0
  0
VISUALSTYLE
  5
5B
102
{ACAD_REACTORS
330
16
102
}
330
16
100
AcDbVisualStyle
  2
Basic
 70
7
 90
1
 40
0.6
 62
7
290
0
291
1
  0
VISUALSTYLE
  5
5C
102
{ACAD_REACTORS
330
16
102
}
330
16
100
AcDbVisualStyle
  2
Brighten
 70
12
 90
2
 40
0.6
 62
7
290
0
291
1
  0
VISUALSTYLE
  5
5D
102
{ACAD_REACTORS
330
16
102
}
330
16
100
AcDbVisualStyle
  2
ColorChange
 70
16
 90
2
 40
0.6
 62
8
290
0
291
1
  0
VISUALSTYLE
  5
5E
102
{ACAD_REACTORS
330
16
102
}
330
16
100
AcDbVisualStyle
  2
Conceptual
 70
9
 90
3
 40
0.6
 62
7
290
0
291
0
  0
VISUALSTYLE
  5
5F
102
{ACAD_REACTORS
330
16
102
}
330
16
100
AcDbVisualStyle
  2
Dim
 70
11
 90
2
 40
0.6
 62
7
290
0
291
1
  0
VISUALSTYLE
  5
60
102
{ACAD_REACTORS
330
16
102
}
330
16
100
AcDbVisualStyle
  2
EdgeColorOff
 70
22
 90
2
 40
0.6
 62
7
290
0
291
1
  0
VISUALSTYLE
  5
61
102
{ACAD_REACTORS
330
16
102
}
330
16
100
AcDbVisualStyle
  2
Facepattern
 70
15
 90
2
 40
0.6
 62
7
290
0
291
1
  0
VISUALSTYLE
  5
62
102
{ACAD_REACTORS
330
16
102
}
330
16
100
AcDbVisualStyle
  2
Flat
 70
0
 90
2
 40
0.6
 62
7
290
0
291
1
  0
VISUALSTYLE
  5
63
102
{ACAD_REACTORS
330
16
102
}
330
16
100
AcDbVisualStyle
  2
FlatWithEdges
 70
1
 90
2
 40
0.6
 62
7
290
0
291
1
  0
VISUALSTYLE
  5
64
102
{ACAD_REACTORS
330
16
102
}
330
16
100
AcDbVisualStyle
  2
Gouraud
 70
2
 90
2
 40
0.6
 62
7
290
0
291
1
  0
VISUALSTYLE
  5
65
102
{ACAD_REACTORS
330
16
102
}
330
16
100
AcDbVisualStyle
  2
GouraudWithEdges
 70
3
 90
2
 40
0.6
 62
7
290
0
291
1
  0
VISUALSTYLE
  5
66
102
{ACAD_REACTORS
330
16
102
}
330
16
100
AcDbVisualStyle
  2
Hidden
 70
6
 90
1
 40
0.6
 62
7
290
0
291
0
  0
VISUALSTYLE
  5
67
102
{ACAD_REACTORS
330
16
102
}
330
16
100
AcDbVisualStyle
  2
JitterOff
 70
20
 90
2
 40
0.6
 62
7
290
0
291
1
  0
VISUALSTYLE
  5
68
102
{ACAD_REACTORS
330
16
102
}
330
16
100
AcDbVisualStyle
  2
Linepattern
 70
14
 90
2
 40
0.6
 62
7
290
0
291
1
  0
VISUALSTYLE
  5
69
102
{ACAD_REACTORS
330
16
102
}
330
16
100
AcDbVisualStyle
  2
Modeling
 70
10
 90
2
 40
0.6
 62
7
290
0
291
0
  0
VISUALSTYLE
  5
6A
102
{ACAD_REACTORS
330
16
102
}
330
16
100
AcDbVisualStyle
  2
OverhangOff
 70
21
 90
2
 40
0.6
 62
7
290
0
291
1
  0
VISUALSTYLE
  5
6B
102
{ACAD_REACTORS
330
16
102
}
330
16
100
AcDbVisualStyle
  2
Realistic
 70
8
 90
2
 40
0.6
 62
7
290
0
291
0
  0
VISUALSTYLE
  5
6C
102
{ACAD_REACTORS
330
16
102
}
330
16
100
AcDbVisualStyle
  2
Shaded
 70
27
 90
2
 40
0.6
 62
7
290
0
291
0
  0
VISUALSTYLE
  5
6D
102
{ACAD_REACTORS
330
16
102
}
330
16
100
AcDbVisualStyle
  2
Shaded with edges
 70
26
 90
2
 40
0.6
 62
7
290
0
291
0
  0
VISUALSTYLE
  5
6E
102
{ACAD_REACTORS
330
16
102
}
330
16
100
AcDbVisualStyle
  2
Shades of Gray
 70
23
 90
2
 40
0.6
 62
7
290
0
291
0
  0
VISUALSTYLE
  5
6F
102
{ACAD_REACTORS
330
16
102
}
330
16
100
AcDbVisualStyle
  2
Sketchy
 70
24
 90
1
 40
0.6
 62
7
290
0
291
0
  0
VISUALSTYLE
  5
70
102
{ACAD_REACTORS
330
16
102
}
330
16
100
AcDbVisualStyle
  2
Thicken
 70
13
 90
2
 40
0.6
 62
7
290
0
291
1
  0
VISUALSTYLE
  5
71
102
{ACAD_REACTORS
330
16
102
}
330
16
100
AcDbVisualStyle
  2
Wireframe
 70
5
 90
0
 40
0.6
 62
7
290
0
291
0
  0
VISUALSTYLE
  5
72
102
{ACAD_REACTORS
330
16
102
}
330
16
100
AcDbVisualStyle
  2
X-Ray
 70
25
 90
2
 40
0.5
 62
7
290
0
291
0
  0
DICTIONARYVAR
  5
1FA
330
2D
100
DictionaryVariables
280
0
  1
1.4.3 @ 2026-03-19T14:36:18.699964+00:00
  0
ENDSEC
  0
EOF
