  0
SECTION
  2
HEADER
  9
$ACADVER
  1
AC1024
  9
$ACADMAINTVER
 70
6
  9
$DWGCODEPAGE
  3
ANSI_1252
  9
$LASTSAVEDBY
  1
ezdxf
  9
$INSBASE
 10
0.0
 20
0.0
 30
0.0
  9
$EXTMIN
 10
1e+20
 20
1e+20
 30
1e+20
  9
$EXTMAX
 10
-1e+20
 20
-1e+20
 30
-1e+20
  9
$LIMMIN
 10
0.0
 20
0.0
  9
$LIMMAX
 10
420.0
 20
297.0
  9
$ORTHOMODE
 70
0
  9
$REGENMODE
 70
1
  9
$FILLMODE
 70
1
  9
$QTEXTMODE
 70
0
  9
$MIRRTEXT
 70
1
  9
$LTSCALE
 40
1.0
  9
$ATTMODE
 70
1
  9
$TEXTSIZE
 40
2.5
  9
$TRACEWID
 40
1.0
  9
$TEXTSTYLE
  7
OpenSans
  9
$CLAYER
  8
0
  9
$CELTYPE
  6
ByLayer
  9
$CECOLOR
 62
256
  9
$CELTSCALE
 40
1.0
  9
$DISPSILH
 70
0
  9
$DIMSCALE
 40
1.0
  9
$DIMASZ
 40
0.175
  9
$DIMEXO
 40
0.125
  9
$DIMDLI
 40
3.75
  9
$DIMRND
 40
0.0
  9
$DIMDLE
 40
0.0
  9
$DIMEXE
 40
0.375
  9
$DIMTP
 40
0.0
  9
$DIMTM
 40
0.0
  9
$DIMTXT
 40
0.25
  9
$DIMCEN
 40
2.5
  9
$DIMTSZ
 40
0.0
  9
$DIMTOL
 70
0
  9
$DIMLIM
 70
0
  9
$DIMTIH
 70
0
  9
$DIMTOH
 70
0
  9
$DIMSE1
 70
0
  9
$DIMSE2
 70
0
  9
$DIMTAD
 70
1
  9
$DIMZIN
 70
12
  9
$DIMBLK
  1
ARCHTICK
  9
$DIMASO
 70
1
  9
$DIMSHO
 70
1
  9
$DIMPOST
  1

  9
$DIMAPOST
  1

  9
$DIMALT
 70
0
  9
$DIMALTD
 70
3
  9
$DIMALTF
 40
0.03937007874
  9
$DIMLFAC
 40
100.0
  9
$DIMTOFL
 70
1
  9
$DIMTVP
 40
0.0
  9
$DIMTIX
 70
0
  9
$DIMSOXD
 70
0
  9
$DIMSAH
 70
0
  9
$DIMBLK1
  1

  9
$DIMBLK2
  1

  9
$DIMSTYLE
  2
EZDXF
  9
$DIMCLRD
 70
0
  9
$DIMCLRE
 70
0
  9
$DIMCLRT
 70
0
  9
$DIMTFAC
 40
0.5
  9
$DIMGAP
 40
0.1
  9
$DIMJUST
 70
0
  9
$DIMSD1
 70
0
  9
$DIMSD2
 70
0
  9
$DIMTOLJ
 70
0
  9
$DIMTZIN
 70
8
  9
$DIMALTZ
 70
0
  9
$DIMALTTZ
 70
0
  9
$DIMUPT
 70
1
  9
$DIMDEC
 70
2
  9
$DIMTDEC
 70
2
  9
$DIMALTU
 70
2
  9
$DIMALTTD
 70
3
  9
$DIMTXSTY
  7
OpenSansCondensed-Light
  9
$DIMAUNIT
 70
0
  9
$DIMADEC
 70
2
  9
$DIMALTRND
 40
0.0
  9
$DIMAZIN
 70
3
  9
$DIMDSEP
 70
46
  9
$DIMATFIT
 70
3
  9
$DIMFRAC
 70
0
  9
$DIMLDRBLK
  1

  9
$DIMLUNIT
 70
2
  9
$DIMLWD
 70
-2
  9
$DIMLWE
 70
-2
  9
$DIMTMOVE
 70
2
  9
$DIMFXL
 40
1.0
  9
$DIMFXLON
 70
0
  9
$DIMJOGANG
 40
0.785398163397
  9
$DIMTFILL
 70
0
  9
$DIMTFILLCLR
 70
0
  9
$DIMARCSYM
 70
0
  9
$DIMLTYPE
  6

  9
$DIMLTEX1
  6

  9
$DIMLTEX2
  6

  9
$DIMTXTDIRECTION
 70
0
  9
$LUNITS
 70
2
  9
$LUPREC
 70
4
  9
$SKETCHINC
 40
1.0
  9
$FILLETRAD
 40
10.0
  9
$AUNITS
 70
0
  9
$AUPREC
 70
2
  9
$MENU
  1
.
  9
$ELEVATION
 40
0.0
  9
$PELEVATION
 40
0.0
  9
$THICKNESS
 40
0.0
  9
$LIMCHECK
 70
0
  9
$CHAMFERA
 40
0.0
  9
$CHAMFERB
 40
0.0
  9
$CHAMFERC
 40
0.0
  9
$CHAMFERD
 40
0.0
  9
$SKPOLY
 70
0
  9
$TDCREATE
 40
2461120.005150463
  9
$TDUCREATE
 40
2458532.153996898
  9
$TDUPDATE
 40
2461120.005150463
  9
$TDUUPDATE
 40
2458532.1544311
  9
$TDINDWG
 40
0.0
  9
$TDUSRTIMER
 40
0.0
  9
$USRTIMER
 70
1
  9
$ANGBASE
 50
0.0
  9
$ANGDIR
 70
0
  9
$PDMODE
 70
0
  9
$PDSIZE
 40
0.0
  9
$PLINEWID
 40
0.0
  9
$SPLFRAME
 70
0
  9
$SPLINETYPE
 70
6
  9
$SPLINESEGS
 70
8
  9
$HANDSEED
  5
A55
  9
$SURFTAB1
 70
6
  9
$SURFTAB2
 70
6
  9
$SURFTYPE
 70
6
  9
$SURFU
 70
6
  9
$SURFV
 70
6
  9
$UCSBASE
  2

  9
$UCSNAME
  2

  9
$UCSORG
 10
0.0
 20
0.0
 30
0.0
  9
$UCSXDIR
 10
1.0
 20
0.0
 30
0.0
  9
$UCSYDIR
 10
0.0
 20
1.0
 30
0.0
  9
$UCSORTHOREF
  2

  9
$UCSORTHOVIEW
 70
0
  9
$UCSORGTOP
 10
0.0
 20
0.0
 30
0.0
  9
$UCSORGBOTTOM
 10
0.0
 20
0.0
 30
0.0
  9
$UCSORGLEFT
 10
0.0
 20
0.0
 30
0.0
  9
$UCSORGRIGHT
 10
0.0
 20
0.0
 30
0.0
  9
$UCSORGFRONT
 10
0.0
 20
0.0
 30
0.0
  9
$UCSORGBACK
 10
0.0
 20
0.0
 30
0.0
  9
$PUCSBASE
  2

  9
$PUCSNAME
  2

  9
$PUCSORG
 10
0.0
 20
0.0
 30
0.0
  9
$PUCSXDIR
 10
1.0
 20
0.0
 30
0.0
  9
$PUCSYDIR
 10
0.0
 20
1.0
 30
0.0
  9
$PUCSORTHOREF
  2

  9
$PUCSORTHOVIEW
 70
0
  9
$PUCSORGTOP
 10
0.0
 20
0.0
 30
0.0
  9
$PUCSORGBOTTOM
 10
0.0
 20
0.0
 30
0.0
  9
$PUCSORGLEFT
 10
0.0
 20
0.0
 30
0.0
  9
$PUCSORGRIGHT
 10
0.0
 20
0.0
 30
0.0
  9
$PUCSORGFRONT
 10
0.0
 20
0.0
 30
0.0
  9
$PUCSORGBACK
 10
0.0
 20
0.0
 30
0.0
  9
$USERI1
 70
0
  9
$USERI2
 70
0
  9
$USERI3
 70
0
  9
$USERI4
 70
0
  9
$USERI5
 70
0
  9
$USERR1
 40
0.0
  9
$USERR2
 40
0.0
  9
$USERR3
 40
0.0
  9
$USERR4
 40
0.0
  9
$USERR5
 40
0.0
  9
$WORLDVIEW
 70
1
  9
$SHADEDGE
 70
3
  9
$SHADEDIF
 70
70
  9
$TILEMODE
 70
1
  9
$MAXACTVP
 70
64
  9
$PINSBASE
 10
0.0
 20
0.0
 30
0.0
  9
$PLIMCHECK
 70
0
  9
$PEXTMIN
 10
1e+20
 20
1e+20
 30
1e+20
  9
$PEXTMAX
 10
-1e+20
 20
-1e+20
 30
-1e+20
  9
$PLIMMIN
 10
0.0
 20
0.0
  9
$PLIMMAX
 10
420.0
 20
297.0
  9
$UNITMODE
 70
0
  9
$VISRETAIN
 70
1
  9
$PLINEGEN
 70
0
  9
$PSLTSCALE
 70
1
  9
$TREEDEPTH
 70
3020
  9
$CMLSTYLE
  2
Standard
  9
$CMLJUST
 70
0
  9
$CMLSCALE
 40
20.0
  9
$PROXYGRAPHICS
 70
1
  9
$MEASUREMENT
 70
1
  9
$CELWEIGHT
370
-1
  9
$ENDCAPS
280
0
  9
$JOINSTYLE
280
0
  9
$LWDISPLAY
290
1
  9
$INSUNITS
 70
6
  9
$HYPERLINKBASE
  1

  9
$STYLESHEET
  1

  9
$XEDIT
290
1
  9
$CEPSNTYPE
380
0
  9
$PSTYLEMODE
290
1
  9
$FINGERPRINTGUID
  2
{FDFA2B44-4C1A-45F7-96AA-AC8399D949A4}
  9
$VERSIONGUID
  2
{9BB8077C-3924-4DC1-B68A-4E79F209DE3F}
  9
$EXTNAMES
290
1
  9
$PSVPSCALE
 40
0.0
  9
$OLESTARTUP
290
0
  9
$SORTENTS
280
127
  9
$INDEXCTL
280
0
  9
$HIDETEXT
280
1
  9
$XCLIPFRAME
280
1
  9
$HALOGAP
280
0
  9
$OBSCOLOR
 70
257
  9
$OBSLTYPE
280
0
  9
$INTERSECTIONDISPLAY
280
0
  9
$INTERSECTIONCOLOR
 70
257
  9
$DIMASSOC
280
2
  9
$PROJECTNAME
  1

  9
$CAMERADISPLAY
290
0
  9
$LENSLENGTH
 40
50.0
  9
$CAMERAHEIGHT
 40
0.0
  9
$STEPSPERSEC
 40
24.0
  9
$STEPSIZE
 40
100.0
  9
$3DDWFPREC
 40
2.0
  9
$PSOLWIDTH
 40
0.005
  9
$PSOLHEIGHT
 40
0.08
  9
$LOFTANG1
 40
1.570796326795
  9
$LOFTANG2
 40
1.570796326795
  9
$LOFTMAG1
 40
0.0
  9
$LOFTMAG2
 40
0.0
  9
$LOFTPARAM
 70
7
  9
$LOFTNORMALS
280
1
  9
$LATITUDE
 40
37.795
  9
$LONGITUDE
 40
-122.394
  9
$NORTHDIRECTION
 40
0.0
  9
$TIMEZONE
 70
-8000
  9
$LIGHTGLYPHDISPLAY
280
1
  9
$TILEMODELIGHTSYNCH
280
1
  9
$CMATERIAL
347
20
  9
$SOLIDHIST
280
0
  9
$SHOWHIST
280
1
  9
$DWFFRAME
280
2
  9
$DGNFRAME
280
2
  9
$REALWORLDSCALE
290
1
  9
$INTERFERECOLOR
 62
256
  9
$CSHADOW
280
0
  9
$SHADOWPLANELOCATION
 40
0.0
  0
ENDSEC
  0
SECTION
  2
CLASSES
  0
CLASS
  1
ACDBDICTIONARYWDFLT
  2
AcDbDictionaryWithDefault
  3
ObjectDBX Classes
 90
0
 91
0
280
0
281
0
  0
CLASS
  1
SUN
  2
AcDbSun
  3
SCENEOE
 90
1153
 91
0
280
0
281
0
  0
CLASS
  1
VISUALSTYLE
  2
AcDbVisualStyle
  3
ObjectDBX Classes
 90
4095
 91
0
280
0
281
0
  0
CLASS
  1
MATERIAL
  2
AcDbMaterial
  3
ObjectDBX Classes
 90
1153
 91
0
280
0
281
0
  0
CLASS
  1
SCALE
  2
AcDbScale
  3
ObjectDBX Classes
 90
1153
 91
0
280
0
281
0
  0
CLASS
  1
TABLESTYLE
  2
AcDbTableStyle
  3
ObjectDBX Classes
 90
4095
 91
0
280
0
281
0
  0
CLASS
  1
MLEADERSTYLE
  2
AcDbMLeaderStyle
  3
ACDB_MLEADERSTYLE_CLASS
 90
4095
 91
0
280
0
281
0
  0
CLASS
  1
DICTIONARYVAR
  2
AcDbDictionaryVar
  3
ObjectDBX Classes
 90
0
 91
0
280
0
281
0
  0
CLASS
  1
CELLSTYLEMAP
  2
AcDbCellStyleMap
  3
ObjectDBX Classes
 90
1152
 91
0
280
0
281
0
  0
CLASS
  1
MENTALRAYRENDERSETTINGS
  2
AcDbMentalRayRenderSettings
  3
SCENEOE
 90
1024
 91
0
280
0
281
0
  0
CLASS
  1
ACDBDETAILVIEWSTYLE
  2
AcDbDetailViewStyle
  3
ObjectDBX Classes
 90
1025
 91
0
280
0
281
0
  0
CLASS
  1
ACDBSECTIONVIEWSTYLE
  2
AcDbSectionViewStyle
  3
ObjectDBX Classes
 90
1025
 91
0
280
0
281
0
  0
CLASS
  1
RASTERVARIABLES
  2
AcDbRasterVariables
  3
ISM
 90
0
 91
0
280
0
281
0
  0
CLASS
  1
ACDBPLACEHOLDER
  2
AcDbPlaceHolder
  3
ObjectDBX Classes
 90
0
 91
0
280
0
281
0
  0
CLASS
  1
LAYOUT
  2
AcDbLayout
  3
ObjectDBX Classes
 90
0
 91
0
280
0
281
0
  0
ENDSEC
  0
SECTION
  2
TABLES
  0
TABLE
  2
VPORT
  5
8
330
0
100
AcDbSymbolTable
 70
1
  0
VPORT
  5
23
330
8
100
AcDbSymbolTableRecord
100
AcDbViewportTableRecord
  2
*Active
 70
0
 10
0.0
 20
0.0
 11
1.0
 21
1.0
 12
0.0
 22
0.0
 13
0.0
 23
0.0
 14
0.5
 24
0.5
 15
0.5
 25
0.5
 16
0.0
 26
0.0
 36
1.0
 17
0.0
 27
0.0
 37
0.0
 40
1000.0
 41
1.34
 42
50.0
 43
0.0
 44
0.0
 50
0.0
 51
0.0
 71
0
 72
1000
 73
1
 74
3
 75
0
 76
0
 77
0
 78
0
281
0
 65
0
146
0.0
  0
ENDTAB
  0
TABLE
  2
LTYPE
  5
2
330
0
100
AcDbSymbolTable
 70
21
  0
LTYPE
  5
24
330
2
100
AcDbSymbolTableRecord
100
AcDbLinetypeTableRecord
  2
ByBlock
 70
0
  3

 72
65
 73
0
 40
0.0
  0
LTYPE
  5
25
330
2
100
AcDbSymbolTableRecord
100
AcDbLinetypeTableRecord
  2
ByLayer
 70
0
  3

 72
65
 73
0
 40
0.0
  0
LTYPE
  5
26
330
2
100
AcDbSymbolTableRecord
100
AcDbLinetypeTableRecord
  2
Continuous
 70
0
  3

 72
65
 73
0
 40
0.0
  0
LTYPE
  5
2F
330
2
100
AcDbSymbolTableRecord
100
AcDbLinetypeTableRecord
  2
CENTER
 70
0
  3
Center ____ _ ____ _ ____ _ ____ _ ____ _ ____
 72
65
 73
4
 40
5.08
 49
3.175
 74
0
 49
-0.635
 74
0
 49
0.635
 74
0
 49
-0.635
 74
0
  0
LTYPE
  5
30
330
2
100
AcDbSymbolTableRecord
100
AcDbLinetypeTableRecord
  2
CENTERX2
 70
0
  3
Center (2x) ________  __  ________  __  ________
 72
65
 73
4
 40
8.89
 49
6.35
 74
0
 49
-0.635
 74
0
 49
1.27
 74
0
 49
-0.635
 74
0
  0
LTYPE
  5
31
330
2
100
AcDbSymbolTableRecord
100
AcDbLinetypeTableRecord
  2
CENTER2
 70
0
  3
Center (.5x) ____ _ ____ _ ____ _ ____ _ ____
 72
65
 73
4
 40
2.54
 49
1.587
 74
0
 49
-0.318
 74
0
 49
0.318
 74
0
 49
-0.318
 74
0
  0
LTYPE
  5
32
330
2
100
AcDbSymbolTableRecord
100
AcDbLinetypeTableRecord
  2
DASHED
 70
0
  3
Dashed __ __ __ __ __ __ __ __ __ __ __ __ __ _
 72
65
 73
2
 40
1.524
 49
1.27
 74
0
 49
-0.254
 74
0
  0
LTYPE
  5
33
330
2
100
AcDbSymbolTableRecord
100
AcDbLinetypeTableRecord
  2
DASHEDX2
 70
0
  3
Dashed (2x) ____  ____  ____  ____  ____  ____
 72
65
 73
2
 40
3.048
 49
2.54
 74
0
 49
-0.508
 74
0
  0
LTYPE
  5
34
330
2
100
AcDbSymbolTableRecord
100
AcDbLinetypeTableRecord
  2
DASHED2
 70
0
  3
Dashed (.5x) _ _ _ _ _ _ _ _ _ _ _ _ _ _
 72
65
 73
2
 40
0.762
 49
0.635
 74
0
 49
-0.127
 74
0
  0
LTYPE
  5
35
330
2
100
AcDbSymbolTableRecord
100
AcDbLinetypeTableRecord
  2
PHANTOM
 70
0
  3
Phantom ______  __  __  ______  __  __  ______
 72
65
 73
6
 40
6.35
 49
3.175
 74
0
 49
-0.635
 74
0
 49
0.635
 74
0
 49
-0.635
 74
0
 49
0.635
 74
0
 49
-0.635
 74
0
  0
LTYPE
  5
36
330
2
100
AcDbSymbolTableRecord
100
AcDbLinetypeTableRecord
  2
PHANTOMX2
 70
0
  3
Phantom (2x)____________    ____    ____    ____________
 72
65
 73
6
 40
10.795
 49
6.35
 74
0
 49
-0.635
 74
0
 49
1.27
 74
0
 49
-0.635
 74
0
 49
1.27
 74
0
 49
-0.635
 74
0
  0
LTYPE
  5
37
330
2
100
AcDbSymbolTableRecord
100
AcDbLinetypeTableRecord
  2
PHANTOM2
 70
0
  3
Phantom (.5x) ___ _ _ ___ _ _ ___ _ _ ___ _ _ ___
 72
65
 73
6
 40
3.175
 49
1.587
 74
0
 49
-0.318
 74
0
 49
0.318
 74
0
 49
-0.318
 74
0
 49
0.318
 74
0
 49
-0.318
 74
0
  0
LTYPE
  5
38
330
2
100
AcDbSymbolTableRecord
100
AcDbLinetypeTableRecord
  2
DASHDOT
 70
0
  3
Dash dot __ . __ . __ . __ . __ . __ . __ . __
 72
65
 73
4
 40
3.556
 49
2.54
 74
0
 49
-0.508
 74
0
 49
0.0
 74
0
 49
-0.508
 74
0
  0
LTYPE
  5
39
330
2
100
AcDbSymbolTableRecord
100
AcDbLinetypeTableRecord
  2
DASHDOTX2
 70
0
  3
Dash dot (2x) ____  .  ____  .  ____  .  ____
 72
65
 73
4
 40
6.096
 49
5.08
 74
0
 49
-0.508
 74
0
 49
0.0
 74
0
 49
-0.508
 74
0
  0
LTYPE
  5
3A
330
2
100
AcDbSymbolTableRecord
100
AcDbLinetypeTableRecord
  2
DASHDOT2
 70
0
  3
Dash dot (.5x) _ . _ . _ . _ . _ . _ . _ . _
 72
65
 73
4
 40
1.778
 49
1.27
 74
0
 49
-0.254
 74
0
 49
0.0
 74
0
 49
-0.254
 74
0
  0
LTYPE
  5
3B
330
2
100
AcDbSymbolTableRecord
100
AcDbLinetypeTableRecord
  2
DOT
 70
0
  3
Dot .  .  .  .  .  .  .  .  .  .  .  .  .  .  .  .
 72
65
 73
2
 40
0.508
 49
0.0
 74
0
 49
-0.508
 74
0
  0
LTYPE
  5
3C
330
2
100
AcDbSymbolTableRecord
100
AcDbLinetypeTableRecord
  2
DOTX2
 70
0
  3
Dot (2x) .    .    .    .    .    .    .    . 
 72
65
 73
2
 40
1.016
 49
0.0
 74
0
 49
-1.016
 74
0
  0
LTYPE
  5
3D
330
2
100
AcDbSymbolTableRecord
100
AcDbLinetypeTableRecord
  2
DOT2
 70
0
  3
Dot (.5) . . . . . . . . . . . . . . . . . . . 
 72
65
 73
2
 40
0.254
 49
0.0
 74
0
 49
-0.254
 74
0
  0
LTYPE
  5
3E
330
2
100
AcDbSymbolTableRecord
100
AcDbLinetypeTableRecord
  2
DIVIDE
 70
0
  3
Divide __ . . __ . . __ . . __ . . __ . . __
 72
65
 73
6
 40
4.064
 49
2.54
 74
0
 49
-0.508
 74
0
 49
0.0
 74
0
 49
-0.508
 74
0
 49
0.0
 74
0
 49
-0.508
 74
0
  0
LTYPE
  5
3F
330
2
100
AcDbSymbolTableRecord
100
AcDbLinetypeTableRecord
  2
DIVIDEX2
 70
0
  3
Divide (2x) ____  . .  ____  . .  ____  . .  ____
 72
65
 73
6
 40
6.604
 49
5.08
 74
0
 49
-0.508
 74
0
 49
0.0
 74
0
 49
-0.508
 74
0
 49
0.0
 74
0
 49
-0.508
 74
0
  0
LTYPE
  5
40
330
2
100
AcDbSymbolTableRecord
100
AcDbLinetypeTableRecord
  2
DIVIDE2
 70
0
  3
Divide(.5x) _ . _ . _ . _ . _ . _ . _ . _
 72
65
 73
6
 40
2.032
 49
1.27
 74
0
 49
-0.254
 74
0
 49
0.0
 74
0
 49
-0.254
 74
0
 49
0.0
 74
0
 49
-0.254
 74
0
  0
ENDTAB
  0
TABLE
  2
LAYER
  5
1
330
0
100
AcDbSymbolTable
 70
63
  0
LAYER
  5
27
330
1
100
AcDbSymbolTableRecord
100
AcDbLayerTableRecord
  2
0
 70
0
 62
7
  6
Continuous
370
-3
390
13
347
21
  0
LAYER
  5
28
330
1
100
AcDbSymbolTableRecord
100
AcDbLayerTableRecord
  2
Defpoints
 70
0
 62
7
  6
Continuous
290
0
370
-3
390
13
347
21
  0
LAYER
  5
90
330
1
100
AcDbSymbolTableRecord
100
AcDbLayerTableRecord
  2
BORDER
 70
0
 62
7
  6
Continuous
370
70
390
13
347
21
  0
LAYER
  5
91
330
1
100
AcDbSymbolTableRecord
100
AcDbLayerTableRecord
  2
TITLEBLOCK
 70
0
 62
7
  6
Continuous
370
50
390
13
347
21
  0
LAYER
  5
92
330
1
100
AcDbSymbolTableRecord
100
AcDbLayerTableRecord
  2
SITE_BOUNDARY
 70
0
 62
1
  6
DASHDOT
370
70
390
13
347
21
  0
LAYER
  5
93
330
1
100
AcDbSymbolTableRecord
100
AcDbLayerTableRecord
  2
ZONE_BOUNDARY
 70
0
 62
40
  6
DASHED
370
50
390
13
347
21
  0
LAYER
  5
94
330
1
100
AcDbSymbolTableRecord
100
AcDbLayerTableRecord
  2
BUILDINGS
 70
0
 62
7
  6
Continuous
370
50
390
13
347
21
  0
LAYER
  5
95
330
1
100
AcDbSymbolTableRecord
100
AcDbLayerTableRecord
  2
BUILDINGS_EXISTING
 70
0
 62
30
  6
Continuous
370
50
390
13
347
21
  0
LAYER
  5
96
330
1
100
AcDbSymbolTableRecord
100
AcDbLayerTableRecord
  2
HATCH_RESIDENTIAL_LOW
 70
0
 62
40
  6
Continuous
370
5
390
13
347
21
  0
LAYER
  5
97
330
1
100
AcDbSymbolTableRecord
100
AcDbLayerTableRecord
  2
HATCH_RESIDENTIAL_MED
 70
0
 62
142
  6
Continuous
370
5
390
13
347
21
  0
LAYER
  5
98
330
1
100
AcDbSymbolTableRecord
100
AcDbLayerTableRecord
  2
HATCH_RESIDENTIAL_HIGH
 70
0
 62
150
  6
Continuous
370
5
390
13
347
21
  0
LAYER
  5
99
330
1
100
AcDbSymbolTableRecord
100
AcDbLayerTableRecord
  2
HATCH_COMMERCIAL
 70
0
 62
10
  6
Continuous
370
5
390
13
347
21
  0
LAYER
  5
9A
330
1
100
AcDbSymbolTableRecord
100
AcDbLayerTableRecord
  2
HATCH_GREEN
 70
0
 62
82
  6
Continuous
370
5
390
13
347
21
  0
LAYER
  5
9B
330
1
100
AcDbSymbolTableRecord
100
AcDbLayerTableRecord
  2
HATCH_EDUCATION
 70
0
 62
50
  6
Continuous
370
5
390
13
347
21
  0
LAYER
  5
9C
330
1
100
AcDbSymbolTableRecord
100
AcDbLayerTableRecord
  2
HATCH_HEALTH
 70
0
 62
200
  6
Continuous
370
5
390
13
347
21
  0
LAYER
  5
9D
330
1
100
AcDbSymbolTableRecord
100
AcDbLayerTableRecord
  2
HATCH_RELIGIOUS
 70
0
 62
170
  6
Continuous
370
5
390
13
347
21
  0
LAYER
  5
9E
330
1
100
AcDbSymbolTableRecord
100
AcDbLayerTableRecord
  2
HATCH_ROAD
 70
0
 62
253
  6
Continuous
370
5
390
13
347
21
  0
LAYER
  5
9F
330
1
100
AcDbSymbolTableRecord
100
AcDbLayerTableRecord
  2
HATCH_WATER
 70
0
 62
150
  6
Continuous
370
5
390
13
347
21
  0
LAYER
  5
A0
330
1
100
AcDbSymbolTableRecord
100
AcDbLayerTableRecord
  2
HATCH_SOLAR
 70
0
 62
50
  6
Continuous
370
5
390
13
347
21
  0
LAYER
  5
A1
330
1
100
AcDbSymbolTableRecord
100
AcDbLayerTableRecord
  2
ROADS_PRIMARY
 70
0
 62
7
  6
Continuous
370
50
390
13
347
21
  0
LAYER
  5
A2
330
1
100
AcDbSymbolTableRecord
100
AcDbLayerTableRecord
  2
ROADS_SECONDARY
 70
0
 62
30
  6
Continuous
370
35
390
13
347
21
  0
LAYER
  5
A3
330
1
100
AcDbSymbolTableRecord
100
AcDbLayerTableRecord
  2
ROADS_LOCAL
 70
0
 62
253
  6
Continuous
370
25
390
13
347
21
  0
LAYER
  5
A4
330
1
100
AcDbSymbolTableRecord
100
AcDbLayerTableRecord
  2
ROADS_CENTER
 70
0
 62
4
  6
CENTER
370
18
390
13
347
21
  0
LAYER
  5
A5
330
1
100
AcDbSymbolTableRecord
100
AcDbLayerTableRecord
  2
BRT_LINE
 70
0
 62
1
  6
DASHED
370
35
390
13
347
21
  0
LAYER
  5
A6
330
1
100
AcDbSymbolTableRecord
100
AcDbLayerTableRecord
  2
BRT_STATION
 70
0
 62
1
  6
Continuous
370
35
390
13
347
21
  0
LAYER
  5
A7
330
1
100
AcDbSymbolTableRecord
100
AcDbLayerTableRecord
  2
PEDESTRIAN
 70
0
 62
3
  6
DASHED
370
18
390
13
347
21
  0
LAYER
  5
A8
330
1
100
AcDbSymbolTableRecord
100
AcDbLayerTableRecord
  2
TREES
 70
0
 62
82
  6
Continuous
370
18
390
13
347
21
  0
LAYER
  5
A9
330
1
100
AcDbSymbolTableRecord
100
AcDbLayerTableRecord
  2
GREEN_CORRIDOR
 70
0
 62
3
  6
Continuous
370
25
390
13
347
21
  0
LAYER
  5
AA
330
1
100
AcDbSymbolTableRecord
100
AcDbLayerTableRecord
  2
GREEN_BELT
 70
0
 62
94
  6
Continuous
370
25
390
13
347
21
  0
LAYER
  5
AB
330
1
100
AcDbSymbolTableRecord
100
AcDbLayerTableRecord
  2
CONTOUR_MAJOR
 70
0
 62
46
  6
Continuous
370
25
390
13
347
21
  0
LAYER
  5
AC
330
1
100
AcDbSymbolTableRecord
100
AcDbLayerTableRecord
  2
CONTOUR_MINOR
 70
0
 62
46
  6
Continuous
370
13
390
13
347
21
  0
LAYER
  5
AD
330
1
100
AcDbSymbolTableRecord
100
AcDbLayerTableRecord
  2
WATER_CHANNEL
 70
0
 62
5
  6
Continuous
370
25
390
13
347
21
  0
LAYER
  5
AE
330
1
100
AcDbSymbolTableRecord
100
AcDbLayerTableRecord
  2
EXISTING_STRUCT
 70
0
 62
30
  6
Continuous
370
50
390
13
347
21
  0
LAYER
  5
AF
330
1
100
AcDbSymbolTableRecord
100
AcDbLayerTableRecord
  2
HIGHWAY
 70
0
 62
1
  6
DASHED
370
50
390
13
347
21
  0
LAYER
  5
B0
330
1
100
AcDbSymbolTableRecord
100
AcDbLayerTableRecord
  2
DIMENSIONS
 70
0
 62
2
  6
Continuous
370
18
390
13
347
21
  0
LAYER
  5
B1
330
1
100
AcDbSymbolTableRecord
100
AcDbLayerTableRecord
  2
TEXT_TITLE
 70
0
 62
7
  6
Continuous
370
25
390
13
347
21
  0
LAYER
  5
B2
330
1
100
AcDbSymbolTableRecord
100
AcDbLayerTableRecord
  2
TEXT_LABEL
 70
0
 62
7
  6
Continuous
370
18
390
13
347
21
  0
LAYER
  5
B3
330
1
100
AcDbSymbolTableRecord
100
AcDbLayerTableRecord
  2
TEXT_NOTE
 70
0
 62
7
  6
Continuous
370
13
390
13
347
21
  0
LAYER
  5
B4
330
1
100
AcDbSymbolTableRecord
100
AcDbLayerTableRecord
  2
ANNOTATION
 70
0
 62
7
  6
Continuous
370
18
390
13
347
21
  0
LAYER
  5
B5
330
1
100
AcDbSymbolTableRecord
100
AcDbLayerTableRecord
  2
NORTH_ARROW
 70
0
 62
7
  6
Continuous
370
35
390
13
347
21
  0
LAYER
  5
B6
330
1
100
AcDbSymbolTableRecord
100
AcDbLayerTableRecord
  2
SCALE_BAR
 70
0
 62
7
  6
Continuous
370
25
390
13
347
21
  0
LAYER
  5
B7
330
1
100
AcDbSymbolTableRecord
100
AcDbLayerTableRecord
  2
SETBACKS
 70
0
 62
1
  6
DASHED
370
13
390
13
347
21
  0
LAYER
  5
B8
330
1
100
AcDbSymbolTableRecord
100
AcDbLayerTableRecord
  2
LOT_GRID
 70
0
 62
253
  6
DASHED
370
5
390
13
347
21
  0
LAYER
  5
B9
330
1
100
AcDbSymbolTableRecord
100
AcDbLayerTableRecord
  2
HEIGHT_2FL
 70
0
 62
82
  6
Continuous
370
25
390
13
347
21
  0
LAYER
  5
BA
330
1
100
AcDbSymbolTableRecord
100
AcDbLayerTableRecord
  2
HEIGHT_46FL
 70
0
 62
150
  6
Continuous
370
25
390
13
347
21
  0
LAYER
  5
BB
330
1
100
AcDbSymbolTableRecord
100
AcDbLayerTableRecord
  2
HEIGHT_68FL
 70
0
 62
30
  6
Continuous
370
25
390
13
347
21
  0
LAYER
  5
BC
330
1
100
AcDbSymbolTableRecord
100
AcDbLayerTableRecord
  2
HEIGHT_1014FL
 70
0
 62
1
  6
Continuous
370
35
390
13
347
21
  0
LAYER
  5
BD
330
1
100
AcDbSymbolTableRecord
100
AcDbLayerTableRecord
  2
HATCH_H2
 70
0
 62
82
  6
Continuous
370
5
390
13
347
21
  0
LAYER
  5
BE
330
1
100
AcDbSymbolTableRecord
100
AcDbLayerTableRecord
  2
HATCH_H46
 70
0
 62
150
  6
Continuous
370
5
390
13
347
21
  0
LAYER
  5
BF
330
1
100
AcDbSymbolTableRecord
100
AcDbLayerTableRecord
  2
HATCH_H68
 70
0
 62
30
  6
Continuous
370
5
390
13
347
21
  0
LAYER
  5
C0
330
1
100
AcDbSymbolTableRecord
100
AcDbLayerTableRecord
  2
HATCH_H1014
 70
0
 62
1
  6
Continuous
370
5
390
13
347
21
  0
LAYER
  5
C1
330
1
100
AcDbSymbolTableRecord
100
AcDbLayerTableRecord
  2
GROUND
 70
0
 62
46
  6
Continuous
370
50
390
13
347
21
  0
LAYER
  5
C2
330
1
100
AcDbSymbolTableRecord
100
AcDbLayerTableRecord
  2
ASPHALT
 70
0
 62
253
  6
Continuous
370
35
390
13
347
21
  0
LAYER
  5
C3
330
1
100
AcDbSymbolTableRecord
100
AcDbLayerTableRecord
  2
SIDEWALK_CS
 70
0
 62
7
  6
Continuous
370
25
390
13
347
21
  0
LAYER
  5
C4
330
1
100
AcDbSymbolTableRecord
100
AcDbLayerTableRecord
  2
MEDIAN_CS
 70
0
 62
3
  6
Continuous
370
25
390
13
347
21
  0
LAYER
  5
C5
330
1
100
AcDbSymbolTableRecord
100
AcDbLayerTableRecord
  2
BIKE_CS
 70
0
 62
82
  6
Continuous
370
25
390
13
347
21
  0
LAYER
  5
C6
330
1
100
AcDbSymbolTableRecord
100
AcDbLayerTableRecord
  2
BRT_CS
 70
0
 62
1
  6
Continuous
370
25
390
13
347
21
  0
LAYER
  5
C7
330
1
100
AcDbSymbolTableRecord
100
AcDbLayerTableRecord
  2
TREE_CS
 70
0
 62
3
  6
Continuous
370
18
390
13
347
21
  0
LAYER
  5
C8
330
1
100
AcDbSymbolTableRecord
100
AcDbLayerTableRecord
  2
HATCH_ASPHALT
 70
0
 62
253
  6
Continuous
370
5
390
13
347
21
  0
LAYER
  5
C9
330
1
100
AcDbSymbolTableRecord
100
AcDbLayerTableRecord
  2
HATCH_SIDEWALK
 70
0
 62
7
  6
Continuous
370
5
390
13
347
21
  0
LAYER
  5
CA
330
1
100
AcDbSymbolTableRecord
100
AcDbLayerTableRecord
  2
HATCH_MEDIAN
 70
0
 62
82
  6
Continuous
370
5
390
13
347
21
  0
LAYER
  5
CB
330
1
100
AcDbSymbolTableRecord
100
AcDbLayerTableRecord
  2
HATCH_BIKE
 70
0
 62
82
  6
Continuous
370
5
390
13
347
21
  0
LAYER
  5
CC
330
1
100
AcDbSymbolTableRecord
100
AcDbLayerTableRecord
  2
HATCH_BRT
 70
0
 62
10
  6
Continuous
370
5
390
13
347
21
  0
ENDTAB
  0
TABLE
  2
STYLE
  5
5
330
0
100
AcDbSymbolTable
 70
31
  0
STYLE
  5
29
330
5
100
AcDbSymbolTableRecord
100
AcDbTextStyleTableRecord
  2
Standard
 70
0
 40
0.0
 41
1.0
 50
0.0
 71
0
 42
2.5
  3
txt
  4

  0
STYLE
  5
41
330
5
100
AcDbSymbolTableRecord
100
AcDbTextStyleTableRecord
  2
OpenSans-Light
 70
0
 40
0.0
 41
1.0
 50
0.0
 71
0
 42
2.5
  3
OpenSans-Light.ttf
  4

  0
STYLE
  5
42
330
5
100
AcDbSymbolTableRecord
100
AcDbTextStyleTableRecord
  2
OpenSans-Light-Italic
 70
0
 40
0.0
 41
1.0
 50
0.0
 71
0
 42
2.5
  3
OpenSans-LightItalic.ttf
  4

  0
STYLE
  5
43
330
5
100
AcDbSymbolTableRecord
100
AcDbTextStyleTableRecord
  2
OpenSans
 70
0
 40
0.0
 41
1.0
 50
0.0
 71
0
 42
2.5
  3
OpenSans-Regular.ttf
  4

  0
STYLE
  5
44
330
5
100
AcDbSymbolTableRecord
100
AcDbTextStyleTableRecord
  2
OpenSans-Italic
 70
0
 40
0.0
 41
1.0
 50
0.0
 71
0
 42
2.5
  3
OpenSans-Italic.ttf
  4

  0
STYLE
  5
45
330
5
100
AcDbSymbolTableRecord
100
AcDbTextStyleTableRecord
  2
OpenSans-SemiBold
 70
0
 40
0.0
 41
1.0
 50
0.0
 71
0
 42
2.5
  3
OpenSans-SemiBold.ttf
  4

  0
STYLE
  5
46
330
5
100
AcDbSymbolTableRecord
100
AcDbTextStyleTableRecord
  2
OpenSans-SemiBoldItalic
 70
0
 40
0.0
 41
1.0
 50
0.0
 71
0
 42
2.5
  3
OpenSans-SemiBoldItalic.ttf
  4

  0
STYLE
  5
47
330
5
100
AcDbSymbolTableRecord
100
AcDbTextStyleTableRecord
  2
OpenSans-Bold
 70
0
 40
0.0
 41
1.0
 50
0.0
 71
0
 42
2.5
  3
OpenSans-Bold.ttf
  4

  0
STYLE
  5
48
330
5
100
AcDbSymbolTableRecord
100
AcDbTextStyleTableRecord
  2
OpenSans-BoldItalic
 70
0
 40
0.0
 41
1.0
 50
0.0
 71
0
 42
2.5
  3
OpenSans-BoldItalic.ttf
  4

  0
STYLE
  5
49
330
5
100
AcDbSymbolTableRecord
100
AcDbTextStyleTableRecord
  2
OpenSans-ExtraBold
 70
0
 40
0.0
 41
1.0
 50
0.0
 71
0
 42
2.5
  3
OpenSans-ExtraBold.ttf
  4

  0
STYLE
  5
4A
330
5
100
AcDbSymbolTableRecord
100
AcDbTextStyleTableRecord
  2
OpenSans-ExtraBoldItalic
 70
0
 40
0.0
 41
1.0
 50
0.0
 71
0
 42
2.5
  3
OpenSans-ExtraBoldItalic.ttf
  4

  0
STYLE
  5
4B
330
5
100
AcDbSymbolTableRecord
100
AcDbTextStyleTableRecord
  2
OpenSansCondensed-Bold
 70
0
 40
0.0
 41
1.0
 50
0.0
 71
0
 42
2.5
  3
OpenSansCondensed-Bold.ttf
  4

  0
STYLE
  5
4C
330
5
100
AcDbSymbolTableRecord
100
AcDbTextStyleTableRecord
  2
OpenSansCondensed-Light
 70
0
 40
0.0
 41
1.0
 50
0.0
 71
0
 42
2.5
  3
OpenSansCondensed-Light.ttf
  4

  0
STYLE
  5
4D
330
5
100
AcDbSymbolTableRecord
100
AcDbTextStyleTableRecord
  2
OpenSansCondensed-Italic
 70
0
 40
0.0
 41
1.0
 50
0.0
 71
0
 42
2.5
  3
OpenSansCondensed-LightItalic.ttf
  4

  0
STYLE
  5
4E
330
5
100
AcDbSymbolTableRecord
100
AcDbTextStyleTableRecord
  2
LiberationSans
 70
0
 40
0.0
 41
1.0
 50
0.0
 71
0
 42
2.5
  3
LiberationSans-Regular.ttf
  4

  0
STYLE
  5
4F
330
5
100
AcDbSymbolTableRecord
100
AcDbTextStyleTableRecord
  2
LiberationSans-Bold
 70
0
 40
0.0
 41
1.0
 50
0.0
 71
0
 42
2.5
  3
LiberationSans-Bold.ttf
  4

  0
STYLE
  5
50
330
5
100
AcDbSymbolTableRecord
100
AcDbTextStyleTableRecord
  2
LiberationSans-BoldItalic
 70
0
 40
0.0
 41
1.0
 50
0.0
 71
0
 42
2.5
  3
LiberationSans-BoldItalic.ttf
  4

  0
STYLE
  5
51
330
5
100
AcDbSymbolTableRecord
100
AcDbTextStyleTableRecord
  2
LiberationSans-Italic
 70
0
 40
0.0
 41
1.0
 50
0.0
 71
0
 42
2.5
  3
LiberationSans-Italic.ttf
  4

  0
STYLE
  5
52
330
5
100
AcDbSymbolTableRecord
100
AcDbTextStyleTableRecord
  2
LiberationSerif
 70
0
 40
0.0
 41
1.0
 50
0.0
 71
0
 42
2.5
  3
LiberationSerif-Regular.ttf
  4

  0
STYLE
  5
53
330
5
100
AcDbSymbolTableRecord
100
AcDbTextStyleTableRecord
  2
LiberationSerif-Bold
 70
0
 40
0.0
 41
1.0
 50
0.0
 71
0
 42
2.5
  3
LiberationSerif-Bold.ttf
  4

  0
STYLE
  5
54
330
5
100
AcDbSymbolTableRecord
100
AcDbTextStyleTableRecord
  2
LiberationSerif-BoldItalic
 70
0
 40
0.0
 41
1.0
 50
0.0
 71
0
 42
2.5
  3
LiberationSerif-BoldItalic.ttf
  4

  0
STYLE
  5
55
330
5
100
AcDbSymbolTableRecord
100
AcDbTextStyleTableRecord
  2
LiberationSerif-Italic
 70
0
 40
0.0
 41
1.0
 50
0.0
 71
0
 42
2.5
  3
LiberationSerif-Italic.ttf
  4

  0
STYLE
  5
56
330
5
100
AcDbSymbolTableRecord
100
AcDbTextStyleTableRecord
  2
LiberationMono
 70
0
 40
0.0
 41
1.0
 50
0.0
 71
0
 42
2.5
  3
LiberationMono-Regular.ttf
  4

  0
STYLE
  5
57
330
5
100
AcDbSymbolTableRecord
100
AcDbTextStyleTableRecord
  2
LiberationMono-Bold
 70
0
 40
0.0
 41
1.0
 50
0.0
 71
0
 42
2.5
  3
LiberationMono-Bold.ttf
  4

  0
STYLE
  5
58
330
5
100
AcDbSymbolTableRecord
100
AcDbTextStyleTableRecord
  2
LiberationMono-BoldItalic
 70
0
 40
0.0
 41
1.0
 50
0.0
 71
0
 42
2.5
  3
LiberationMono-BoldItalic.ttf
  4

  0
STYLE
  5
59
330
5
100
AcDbSymbolTableRecord
100
AcDbTextStyleTableRecord
  2
LiberationMono-Italic
 70
0
 40
0.0
 41
1.0
 50
0.0
 71
0
 42
2.5
  3
LiberationMono-Italic.ttf
  4

  0
STYLE
  5
8A
330
5
100
AcDbSymbolTableRecord
100
AcDbTextStyleTableRecord
  2
TITLE
 70
0
 40
0.0
 41
1.0
 50
0.0
 71
0
 42
2.5
  3
Arial.ttf
  4

  0
STYLE
  5
8B
330
5
100
AcDbSymbolTableRecord
100
AcDbTextStyleTableRecord
  2
SUBTITLE
 70
0
 40
0.0
 41
1.0
 50
0.0
 71
0
 42
2.5
  3
Arial.ttf
  4

  0
STYLE
  5
8C
330
5
100
AcDbSymbolTableRecord
100
AcDbTextStyleTableRecord
  2
LABEL
 70
0
 40
0.0
 41
0.9
 50
0.0
 71
0
 42
2.5
  3
Arial.ttf
  4

  0
STYLE
  5
8D
330
5
100
AcDbSymbolTableRecord
100
AcDbTextStyleTableRecord
  2
NOTE
 70
0
 40
0.0
 41
0.85
 50
0.0
 71
0
 42
2.5
  3
Arial.ttf
  4

  0
STYLE
  5
8E
330
5
100
AcDbSymbolTableRecord
100
AcDbTextStyleTableRecord
  2
DIM
 70
0
 40
0.0
 41
0.9
 50
0.0
 71
0
 42
2.5
  3
Arial.ttf
  4

  0
ENDTAB
  0
TABLE
  2
VIEW
  5
7
330
0
100
AcDbSymbolTable
 70
0
  0
ENDTAB
  0
TABLE
  2
UCS
  5
6
330
0
100
AcDbSymbolTable
 70
0
  0
ENDTAB
  0
TABLE
  2
APPID
  5
3
330
0
100
AcDbSymbolTable
 70
3
  0
APPID
  5
2A
330
3
100
AcDbSymbolTableRecord
100
AcDbRegAppTableRecord
  2
ACAD
 70
0
  0
APPID
  5
37C
330
3
100
AcDbSymbolTableRecord
100
AcDbRegAppTableRecord
  2
HATCHBACKGROUNDCOLOR
 70
0
  0
APPID
  5
37D
330
3
100
AcDbSymbolTableRecord
100
AcDbRegAppTableRecord
  2
EZDXF
 70
0
  0
ENDTAB
  0
TABLE
  2
DIMSTYLE
  5
4
330
0
100
AcDbSymbolTable
 70
13
100
AcDbDimStyleTable
  0
DIMSTYLE
105
2B
330
4
100
AcDbSymbolTableRecord
100
AcDbDimStyleTableRecord
  2
Standard
 70
0
 40
1.0
 41
2.5
 42
0.625
 43
3.75
 44
1.25
 45
0.0
 46
0.0
 47
0.0
 48
0.0
 49
2.5
140
2.5
141
2.5
142
0.0
143
0.03937007874
144
1.0
145
0.0
146
1.0
147
0.625
148
0.0
 69
0
 70
0
 71
0
 72
0
 73
0
 74
0
 75
0
 76
0
 77
1
 78
8
 79
3
170
0
171
3
172
1
173
0
174
0
175
0
176
0
177
0
178
0
179
2
271
2
272
2
273
2
274
3
275
0
276
0
277
2
278
44
279
0
280
0
281
0
282
0
283
0
284
8
285
0
286
0
288
0
289
3
290
0
371
-2
372
-2
  0
DIMSTYLE
105
73
330
4
100
AcDbSymbolTableRecord
100
AcDbDimStyleTableRecord
  2
EZDXF
 70
0
 40
1.0
 41
0.175
 42
0.125
 43
3.75
 44
0.375
 45
0.0
 46
0.0
 47
0.0
 48
0.0
 49
2.5
140
0.25
141
2.5
142
0.0
143
0.03937007874
144
100.0
145
0.0
146
0.5
147
0.1
148
0.0
 69
0
 70
0
 71
0
 72
0
 73
0
 74
0
 75
0
 76
0
 77
1
 78
12
 79
3
170
0
171
3
172
1
173
0
174
0
175
0
176
0
177
0
178
0
179
2
271
2
272
2
273
2
274
3
275
0
276
0
277
2
278
46
279
2
280
0
281
0
282
0
283
0
284
8
285
0
286
0
288
1
289
3
290
0
340
4C
342
74
371
-2
372
-2
  0
DIMSTYLE
105
7C
330
4
100
AcDbSymbolTableRecord
100
AcDbDimStyleTableRecord
  2
EZ_M_100_H25_CM
 70
0
 40
1.0
 41
0.25
 42
0.125
 43
3.75
 44
0.375
 45
0.0
 46
0.0
 47
0.0
 48
0.0
 49
2.5
140
0.25
141
2.5
142
0.125
143
0.03937007874
144
100.0
145
0.0
146
0.5
147
0.1
148
0.0
 69
0
 70
0
 71
0
 72
0
 73
0
 74
0
 75
0
 76
0
 77
1
 78
12
 79
3
170
0
171
3
172
1
173
0
174
0
175
0
176
0
177
0
178
0
179
2
271
2
272
2
273
2
274
3
275
0
276
0
277
2
278
46
279
2
280
0
281
0
282
0
283
0
284
8
285
0
286
0
288
1
289
3
290
0
340
4C
371
-2
372
-2
  0
DIMSTYLE
105
7D
330
4
100
AcDbSymbolTableRecord
100
AcDbDimStyleTableRecord
  2
EZ_M_50_H25_CM
 70
0
 40
1.0
 41
0.125
 42
0.0625
 43
3.75
 44
0.1875
 45
0.0
 46
0.0
 47
0.0
 48
0.0
 49
2.5
140
0.125
141
2.5
142
0.0625
143
0.03937007874
144
100.0
145
0.0
146
0.5
147
0.05
148
0.0
 69
0
 70
0
 71
0
 72
0
 73
0
 74
0
 75
0
 76
0
 77
1
 78
12
 79
3
170
0
171
3
172
1
173
0
174
0
175
0
176
0
177
0
178
0
179
2
271
2
272
2
273
2
274
3
275
0
276
0
277
2
278
46
279
2
280
0
281
0
282
0
283
0
284
8
285
0
286
0
288
1
289
3
290
0
340
4C
371
-2
372
-2
  0
DIMSTYLE
105
7E
330
4
100
AcDbSymbolTableRecord
100
AcDbDimStyleTableRecord
  2
EZ_M_25_H25_CM
 70
0
 40
1.0
 41
0.0625
 42
0.03125
 43
3.75
 44
0.09375
 45
0.0
 46
0.0
 47
0.0
 48
0.0
 49
2.5
140
0.0625
141
2.5
142
0.03125
143
0.03937007874
144
100.0
145
0.0
146
0.5
147
0.025
148
0.0
 69
0
 70
0
 71
0
 72
0
 73
0
 74
0
 75
0
 76
0
 77
1
 78
12
 79
3
170
0
171
3
172
1
173
0
174
0
175
0
176
0
177
0
178
0
179
2
271
2
272
2
273
2
274
3
275
0
276
0
277
2
278
46
279
2
280
0
281
0
282
0
283
0
284
8
285
0
286
0
288
1
289
3
290
0
340
4C
371
-2
372
-2
  0
DIMSTYLE
105
7F
330
4
100
AcDbSymbolTableRecord
100
AcDbDimStyleTableRecord
  2
EZ_M_20_H25_CM
 70
0
 40
1.0
 41
0.05
 42
0.025
 43
3.75
 44
0.07500000000000001
 45
0.0
 46
0.0
 47
0.0
 48
0.0
 49
2.5
140
0.05
141
2.5
142
0.025
143
0.03937007874
144
100.0
145
0.0
146
0.5
147
0.020000000000000004
148
0.0
 69
0
 70
0
 71
0
 72
0
 73
0
 74
0
 75
0
 76
0
 77
1
 78
12
 79
3
170
0
171
3
172
1
173
0
174
0
175
0
176
0
177
0
178
0
179
2
271
2
272
2
273
2
274
3
275
0
276
0
277
2
278
46
279
2
280
0
281
0
282
0
283
0
284
8
285
0
286
0
288
1
289
3
290
0
340
4C
371
-2
372
-2
  0
DIMSTYLE
105
80
330
4
100
AcDbSymbolTableRecord
100
AcDbDimStyleTableRecord
  2
EZ_M_10_H25_CM
 70
0
 40
1.0
 41
0.025
 42
0.0125
 43
3.75
 44
0.037500000000000006
 45
0.0
 46
0.0
 47
0.0
 48
0.0
 49
2.5
140
0.025
141
2.5
142
0.0125
143
0.03937007874
144
100.0
145
0.0
146
0.5
147
0.010000000000000002
148
0.0
 69
0
 70
0
 71
0
 72
0
 73
0
 74
0
 75
0
 76
0
 77
1
 78
12
 79
3
170
0
171
3
172
1
173
0
174
0
175
0
176
0
177
0
178
0
179
2
271
2
272
2
273
2
274
3
275
0
276
0
277
2
278
46
279
2
280
0
281
0
282
0
283
0
284
8
285
0
286
0
288
1
289
3
290
0
340
4C
371
-2
372
-2
  0
DIMSTYLE
105
81
330
4
100
AcDbSymbolTableRecord
100
AcDbDimStyleTableRecord
  2
EZ_M_5_H25_CM
 70
0
 40
1.0
 41
0.0125
 42
0.00625
 43
3.75
 44
0.018750000000000003
 45
0.0
 46
0.0
 47
0.0
 48
0.0
 49
2.5
140
0.0125
141
2.5
142
0.00625
143
0.03937007874
144
100.0
145
0.0
146
0.5
147
0.005000000000000001
148
0.0
 69
0
 70
0
 71
0
 72
0
 73
0
 74
0
 75
0
 76
0
 77
1
 78
12
 79
3
170
0
171
3
172
1
173
0
174
0
175
0
176
0
177
0
178
0
179
2
271
2
272
2
273
2
274
3
275
0
276
0
277
2
278
46
279
2
280
0
281
0
282
0
283
0
284
8
285
0
286
0
288
1
289
3
290
0
340
4C
371
-2
372
-2
  0
DIMSTYLE
105
82
330
4
100
AcDbSymbolTableRecord
100
AcDbDimStyleTableRecord
  2
EZ_M_1_H25_CM
 70
0
 40
1.0
 41
0.0025
 42
0.00125
 43
3.75
 44
0.00375
 45
0.0
 46
0.0
 47
0.0
 48
0.0
 49
2.5
140
0.0025
141
2.5
142
0.00125
143
0.03937007874
144
100.0
145
0.0
146
0.5
147
0.001
148
0.0
 69
0
 70
0
 71
0
 72
0
 73
0
 74
0
 75
0
 76
0
 77
1
 78
12
 79
3
170
0
171
3
172
1
173
0
174
0
175
0
176
0
177
0
178
0
179
2
271
2
272
2
273
2
274
3
275
0
276
0
277
2
278
46
279
2
280
0
281
0
282
0
283
0
284
8
285
0
286
0
288
1
289
3
290
0
340
4C
371
-2
372
-2
  0
DIMSTYLE
105
83
330
4
100
AcDbSymbolTableRecord
100
AcDbDimStyleTableRecord
  2
EZ_RADIUS
 70
0
 40
1.0
 41
0.25
 42
0.125
 43
3.75
 44
0.375
 45
0.0
 46
0.0
 47
0.0
 48
0.0
 49
2.5
140
0.25
141
0.0
142
0.0
143
0.03937007874
144
100.0
145
0.0
146
0.5
147
0.1
148
0.0
 69
0
 70
0
 71
0
 72
0
 73
0
 74
0
 75
0
 76
0
 77
1
 78
12
 79
3
170
0
171
3
172
0
173
0
174
0
175
0
176
0
177
0
178
0
179
2
271
2
272
2
273
2
274
3
275
0
276
0
277
2
278
46
279
1
280
0
281
0
282
0
283
0
284
8
285
0
286
0
288
1
289
3
290
0
340
4C
342
84
371
-2
372
-2
  0
DIMSTYLE
105
88
330
4
100
AcDbSymbolTableRecord
100
AcDbDimStyleTableRecord
  2
EZ_RADIUS_INSIDE
 70
0
 40
1.0
 41
0.25
 42
0.125
 43
3.75
 44
0.375
 45
0.0
 46
0.0
 47
0.0
 48
0.0
 49
2.5
140
0.25
141
0.0
142
0.0
143
0.03937007874
144
100.0
145
0.0
146
0.5
147
0.1
148
0.0
 69
0
 70
0
 71
0
 72
0
 73
0
 74
0
 75
0
 76
0
 77
0
 78
12
 79
3
170
0
171
3
172
0
173
0
174
1
175
0
176
0
177
0
178
0
179
2
271
2
272
2
273
2
274
3
275
0
276
0
277
2
278
46
279
0
280
0
281
0
282
0
283
0
284
8
285
0
286
0
288
1
289
0
290
0
340
4C
342
84
371
-2
372
-2
  0
DIMSTYLE
105
89
330
4
100
AcDbSymbolTableRecord
100
AcDbDimStyleTableRecord
  2
EZ_CURVED
 70
0
 40
1.0
 41
0.25
 42
0.125
 43
3.75
 44
0.375
 45
0.0
 46
0.0
 47
0.0
 48
0.0
 49
2.5
140
0.25
141
2.5
142
0.0
143
0.03937007874
144
100.0
145
0.0
146
0.5
147
0.1
148
0.0
 69
0
 70
0
 71
0
 72
0
 73
0
 74
0
 75
0
 76
0
 77
1
 78
12
 79
2
 90
2
170
0
171
3
172
1
173
0
174
0
175
0
176
0
177
0
178
0
179
2
271
2
272
2
273
2
274
3
275
0
276
0
277
2
278
46
279
2
280
0
281
0
282
0
283
0
284
8
285
0
286
0
288
1
289
3
290
0
340
4C
371
-2
372
-2
  0
DIMSTYLE
105
8F
330
4
100
AcDbSymbolTableRecord
100
AcDbDimStyleTableRecord
  2
ARCH
 70
0
 40
1.0
 41
2.5
 42
1.0
 43
3.75
 44
1.5
 45
0.0
 46
0.0
 47
0.0
 48
0.0
 49
2.5
140
3.0
141
2.5
142
0.0
143
0.03937007874
144
1.0
145
0.0
146
1.0
147
1.0
148
0.0
 69
0
 70
0
 71
0
 72
0
 73
0
 74
0
 75
0
 76
0
 77
1
 78
8
 79
3
170
0
171
3
172
1
173
0
174
0
175
0
176
0
177
0
178
0
179
2
271
0
272
2
273
2
274
3
275
0
276
0
277
2
278
44
279
0
280
0
281
0
282
0
283
0
284
8
285
0
286
0
288
0
289
3
290
0
340
8E
371
-2
372
-2
  0
ENDTAB
  0
TABLE
  2
BLOCK_RECORD
  5
9
330
0
100
AcDbSymbolTable
 70
18
  0
BLOCK_RECORD
  5
17
330
9
100
AcDbSymbolTableRecord
100
AcDbBlockTableRecord
  2
*Model_Space
340
1A
 70
0
280
1
281
0
  0
BLOCK_RECORD
  5
1B
330
9
100
AcDbSymbolTableRecord
100
AcDbBlockTableRecord
  2
*Paper_Space
340
1E
 70
0
280
1
281
0
  0
BLOCK_RECORD
  5
74
330
9
100
AcDbSymbolTableRecord
100
AcDbBlockTableRecord
  2
_ARCHTICK
340
0
 70
0
280
1
281
0
  0
BLOCK_RECORD
  5
78
330
9
100
AcDbSymbolTableRecord
100
AcDbBlockTableRecord
  2
_CLOSEDFILLED
340
0
 70
0
280
1
281
0
  0
BLOCK_RECORD
  5
84
330
9
100
AcDbSymbolTableRecord
100
AcDbBlockTableRecord
  2
_CLOSEDBLANK
340
0
 70
0
280
1
281
0
  0
BLOCK_RECORD
  5
CD
330
9
100
AcDbSymbolTableRecord
100
AcDbBlockTableRecord
  2
TREE_PLAN
340
0
 70
0
280
1
281
0
  0
BLOCK_RECORD
  5
D6
330
9
100
AcDbSymbolTableRecord
100
AcDbBlockTableRecord
  2
TREE_SMALL
340
0
 70
0
280
1
281
0
  0
BLOCK_RECORD
  5
DB
330
9
100
AcDbSymbolTableRecord
100
AcDbBlockTableRecord
  2
TREE_SECTION
340
0
 70
0
280
1
281
0
  0
BLOCK_RECORD
  5
E0
330
9
100
AcDbSymbolTableRecord
100
AcDbBlockTableRecord
  2
NORTH_ARROW
340
0
 70
0
280
1
281
0
  0
BLOCK_RECORD
  5
E6
330
9
100
AcDbSymbolTableRecord
100
AcDbBlockTableRecord
  2
SCALE_BAR_1000
340
0
 70
0
280
1
281
0
  0
BLOCK_RECORD
  5
F2
330
9
100
AcDbSymbolTableRecord
100
AcDbBlockTableRecord
  2
BRT_STATION
340
0
 70
0
280
1
281
0
  0
BLOCK_RECORD
  5
F8
330
9
100
AcDbSymbolTableRecord
100
AcDbBlockTableRecord
  2
ROUNDABOUT
340
0
 70
0
280
1
281
0
  0
BLOCK_RECORD
  5
FE
330
9
100
AcDbSymbolTableRecord
100
AcDbBlockTableRecord
  2
CAR_PLAN
340
0
 70
0
280
1
281
0
  0
BLOCK_RECORD
  5
104
330
9
100
AcDbSymbolTableRecord
100
AcDbBlockTableRecord
  2
PERSON_SECTION
340
0
 70
0
280
1
281
0
  0
BLOCK_RECORD
  5
10D
330
9
100
AcDbSymbolTableRecord
100
AcDbBlockTableRecord
  2
BLDG_RECT
340
0
 70
0
280
1
281
0
  0
BLOCK_RECORD
  5
112
330
9
100
AcDbSymbolTableRecord
100
AcDbBlockTableRecord
  2
MOSQUE
340
0
 70
0
280
1
281
0
  0
BLOCK_RECORD
  5
358
330
9
100
AcDbSymbolTableRecord
100
AcDbBlockTableRecord
  2
*D1
340
0
 70
0
280
1
281
0
  0
BLOCK_RECORD
  5
367
330
9
100
AcDbSymbolTableRecord
100
AcDbBlockTableRecord
  2
*D2
340
0
 70
0
280
1
281
0
  0
ENDTAB
  0
ENDSEC
  0
SECTION
  2
BLOCKS
  0
BLOCK
  5
18
330
17
100
AcDbEntity
  8
0
100
AcDbBlockBegin
  2
*Model_Space
 70
0
 10
0.0
 20
0.0
 30
0.0
  3
*Model_Space
  1

  0
ENDBLK
  5
19
330
17
100
AcDbEntity
  8
0
100
AcDbBlockEnd
  0
BLOCK
  5
1C
330
1B
100
AcDbEntity
  8
0
100
AcDbBlockBegin
  2
*Paper_Space
 70
0
 10
0.0
 20
0.0
 30
0.0
  3
*Paper_Space
  1

  0
ENDBLK
  5
1D
330
1B
100
AcDbEntity
  8
0
100
AcDbBlockEnd
  0
BLOCK
  5
75
330
74
100
AcDbEntity
  8
0
100
AcDbBlockBegin
  2
_ARCHTICK
 70
0
 10
0.0
 20
0.0
 30
0.0
  3
_ARCHTICK
  1

  0
LWPOLYLINE
  5
77
330
74
100
AcDbEntity
  8
0
  6
BYBLOCK
 62
0
100
AcDbPolyline
 90
2
 70
0
 43
0.15
 10
-0.5
 20
-0.5
 10
0.5
 20
0.5
  0
ENDBLK
  5
76
330
74
100
AcDbEntity
  8
0
100
AcDbBlockEnd
  0
BLOCK
  5
79
330
78
100
AcDbEntity
  8
0
100
AcDbBlockBegin
  2
_CLOSEDFILLED
 70
0
 10
0.0
 20
0.0
 30
0.0
  3
_CLOSEDFILLED
  1

  0
SOLID
  5
7B
330
78
100
AcDbEntity
  8
0
  6
BYBLOCK
 62
0
100
AcDbTrace
 10
-1.0
 20
0.16439898372402537
 30
0.0
 11
0.0
 21
0.0
 31
0.0
 12
-1.0
 22
-0.16439898372402537
 32
0.0
 13
-1.0
 23
-0.16439898372402537
 33
0.0
  0
ENDBLK
  5
7A
330
78
100
AcDbEntity
  8
0
100
AcDbBlockEnd
  0
BLOCK
  5
85
330
84
100
AcDbEntity
  8
0
100
AcDbBlockBegin
  2
_CLOSEDBLANK
 70
0
 10
0.0
 20
0.0
 30
0.0
  3
_CLOSEDBLANK
  1

  0
LWPOLYLINE
  5
87
330
84
100
AcDbEntity
  8
0
  6
BYBLOCK
 62
0
100
AcDbPolyline
 90
3
 70
1
 10
-1.0
 20
0.16439898372402537
 10
0.0
 20
0.0
 10
-1.0
 20
-0.16439898372402537
  0
ENDBLK
  5
86
330
84
100
AcDbEntity
  8
0
100
AcDbBlockEnd
  0
BLOCK
  5
CE
330
CD
100
AcDbEntity
  8
0
100
AcDbBlockBegin
  2
TREE_PLAN
 70
0
 10
0.0
 20
0.0
 30
0.0
  3
TREE_PLAN
  1

  0
CIRCLE
  5
D0
330
CD
100
AcDbEntity
  8
0
 62
82
370
18
100
AcDbCircle
 10
0.0
 20
0.0
 30
0.0
 40
3.0
  0
CIRCLE
  5
D1
330
CD
100
AcDbEntity
  8
0
 62
94
370
13
100
AcDbCircle
 10
0.0
 20
0.0
 30
0.0
 40
0.5
  0
LINE
  5
D2
330
CD
100
AcDbEntity
  8
0
 62
82
370
5
100
AcDbLine
 10
-2.2
 20
-0.0
 30
0.0
 11
2.2
 21
0.0
 31
0.0
  0
LINE
  5
D3
330
CD
100
AcDbEntity
  8
0
 62
82
370
5
100
AcDbLine
 10
-1.5556349186104048
 20
-1.5556349186104046
 30
0.0
 11
1.5556349186104048
 21
1.5556349186104046
 31
0.0
  0
LINE
  5
D4
330
CD
100
AcDbEntity
  8
0
 62
82
370
5
100
AcDbLine
 10
-1.3471114790620887e-16
 20
-2.2
 30
0.0
 11
1.3471114790620887e-16
 21
2.2
 31
0.0
  0
LINE
  5
D5
330
CD
100
AcDbEntity
  8
0
 62
82
370
5
100
AcDbLine
 10
1.5556349186104046
 20
-1.5556349186104048
 30
0.0
 11
-1.5556349186104046
 21
1.5556349186104048
 31
0.0
  0
ENDBLK
  5
CF
330
CD
100
AcDbEntity
  8
0
100
AcDbBlockEnd
  0
BLOCK
  5
D7
330
D6
100
AcDbEntity
  8
0
100
AcDbBlockBegin
  2
TREE_SMALL
 70
0
 10
0.0
 20
0.0
 30
0.0
  3
TREE_SMALL
  1

  0
CIRCLE
  5
D9
330
D6
100
AcDbEntity
  8
0
 62
82
370
13
100
AcDbCircle
 10
0.0
 20
0.0
 30
0.0
 40
1.5
  0
CIRCLE
  5
DA
330
D6
100
AcDbEntity
  8
0
 62
94
370
9
100
AcDbCircle
 10
0.0
 20
0.0
 30
0.0
 40
0.3
  0
ENDBLK
  5
D8
330
D6
100
AcDbEntity
  8
0
100
AcDbBlockEnd
  0
BLOCK
  5
DC
330
DB
100
AcDbEntity
  8
0
100
AcDbBlockBegin
  2
TREE_SECTION
 70
0
 10
0.0
 20
0.0
 30
0.0
  3
TREE_SECTION
  1

  0
LWPOLYLINE
  5
DE
330
DB
100
AcDbEntity
  8
0
 62
46
370
18
100
AcDbPolyline
 90
4
 70
1
 10
-0.3
 20
0.0
 10
-0.3
 20
3.0
 10
0.3
 20
3.0
 10
0.3
 20
0.0
  0
LWPOLYLINE
  5
DF
330
DB
100
AcDbEntity
  8
0
 62
82
370
18
100
AcDbPolyline
 90
4
 70
1
 10
-2.5
 20
3.0
 42
0.5
 10
0.0
 20
7.0
 42
0.5
 10
2.5
 20
3.0
 42
0.5
 10
0.0
 20
3.5
 42
-0.3
  0
ENDBLK
  5
DD
330
DB
100
AcDbEntity
  8
0
100
AcDbBlockEnd
  0
BLOCK
  5
E1
330
E0
100
AcDbEntity
  8
0
100
AcDbBlockBegin
  2
NORTH_ARROW
 70
0
 10
0.0
 20
0.0
 30
0.0
  3
NORTH_ARROW
  1

  0
LWPOLYLINE
  5
E3
330
E0
100
AcDbEntity
  8
0
 62
7
370
35
100
AcDbPolyline
 90
4
 70
1
 10
0.0
 20
0.0
 10
-4.0
 20
-12.0
 10
0.0
 20
-8.0
 10
4.0
 20
-12.0
  0
HATCH
  5
E4
330
E0
100
AcDbEntity
  8
0
 62
7
100
AcDbHatch
 10
0.0
 20
0.0
 30
0.0
210
0.0
220
0.0
230
1.0
  2
SOLID
 70
1
 71
0
 91
1
 92
3
 72
0
 73
1
 93
3
 10
0.0
 20
0.0
 10
4.0
 20
-12.0
 10
0.0
 20
-8.0
 97
0
 75
0
 76
1
 98
0
  0
TEXT
  5
E5
330
E0
100
AcDbEntity
  8
0
 62
7
100
AcDbText
 10
-2.5
 20
2.0
 30
0.0
 40
5.0
  1
N
  7
TITLE
 11
-2.5
 21
2.0
 31
0.0
100
AcDbText
 73
1
  0
ENDBLK
  5
E2
330
E0
100
AcDbEntity
  8
0
100
AcDbBlockEnd
  0
BLOCK
  5
E7
330
E6
100
AcDbEntity
  8
0
100
AcDbBlockBegin
  2
SCALE_BAR_1000
 70
0
 10
0.0
 20
0.0
 30
0.0
  3
SCALE_BAR_1000
  1

  0
HATCH
  5
E9
330
E6
100
AcDbEntity
  8
0
 62
7
100
AcDbHatch
 10
0.0
 20
0.0
 30
0.0
210
0.0
220
0.0
230
1.0
  2
SOLID
 70
1
 71
0
 91
1
 92
3
 72
0
 73
1
 93
4
 10
0.0
 20
0.0
 10
50.0
 20
0.0
 10
50.0
 20
4.0
 10
0.0
 20
4.0
 97
0
 75
0
 76
1
 98
0
  0
LWPOLYLINE
  5
EA
330
E6
100
AcDbEntity
  8
0
 62
7
370
18
100
AcDbPolyline
 90
4
 70
1
 10
0.0
 20
0.0
 10
50.0
 20
0.0
 10
50.0
 20
4.0
 10
0.0
 20
4.0
  0
LWPOLYLINE
  5
EB
330
E6
100
AcDbEntity
  8
0
 62
7
370
18
100
AcDbPolyline
 90
4
 70
1
 10
50.0
 20
0.0
 10
100.0
 20
0.0
 10
100.0
 20
4.0
 10
50.0
 20
4.0
  0
HATCH
  5
EC
330
E6
100
AcDbEntity
  8
0
 62
7
100
AcDbHatch
 10
0.0
 20
0.0
 30
0.0
210
0.0
220
0.0
230
1.0
  2
SOLID
 70
1
 71
0
 91
1
 92
3
 72
0
 73
1
 93
4
 10
100.0
 20
0.0
 10
150.0
 20
0.0
 10
150.0
 20
4.0
 10
100.0
 20
4.0
 97
0
 75
0
 76
1
 98
0
  0
LWPOLYLINE
  5
ED
330
E6
100
AcDbEntity
  8
0
 62
7
370
18
100
AcDbPolyline
 90
4
 70
1
 10
100.0
 20
0.0
 10
150.0
 20
0.0
 10
150.0
 20
4.0
 10
100.0
 20
4.0
  0
LWPOLYLINE
  5
EE
330
E6
100
AcDbEntity
  8
0
 62
7
370
18
100
AcDbPolyline
 90
4
 70
1
 10
150.0
 20
0.0
 10
200.0
 20
0.0
 10
200.0
 20
4.0
 10
150.0
 20
4.0
  0
TEXT
  5
EF
330
E6
100
AcDbEntity
  8
0
 62
7
100
AcDbText
 10
0.0
 20
-4.0
 30
0.0
 40
3.0
  1
0
  7
LABEL
 72
1
 11
0.0
 21
-4.0
 31
0.0
100
AcDbText
 73
2
  0
TEXT
  5
F0
330
E6
100
AcDbEntity
  8
0
 62
7
100
AcDbText
 10
100.0
 20
-4.0
 30
0.0
 40
3.0
  1
100m
  7
LABEL
 72
1
 11
100.0
 21
-4.0
 31
0.0
100
AcDbText
 73
2
  0
TEXT
  5
F1
330
E6
100
AcDbEntity
  8
0
 62
7
100
AcDbText
 10
200.0
 20
-4.0
 30
0.0
 40
3.0
  1
200m
  7
LABEL
 72
1
 11
200.0
 21
-4.0
 31
0.0
100
AcDbText
 73
2
  0
ENDBLK
  5
E8
330
E6
100
AcDbEntity
  8
0
100
AcDbBlockEnd
  0
BLOCK
  5
F3
330
F2
100
AcDbEntity
  8
0
100
AcDbBlockBegin
  2
BRT_STATION
 70
0
 10
0.0
 20
0.0
 30
0.0
  3
BRT_STATION
  1

  0
LWPOLYLINE
  5
F5
330
F2
100
AcDbEntity
  8
0
 62
1
370
35
100
AcDbPolyline
 90
4
 70
1
 10
-8.0
 20
-4.0
 10
8.0
 20
-4.0
 10
8.0
 20
4.0
 10
-8.0
 20
4.0
  0
LINE
  5
F6
330
F2
100
AcDbEntity
  8
0
 62
1
370
18
100
AcDbLine
 10
-8.0
 20
0.0
 30
0.0
 11
8.0
 21
0.0
 31
0.0
  0
TEXT
  5
F7
330
F2
100
AcDbEntity
  8
0
 62
1
100
AcDbText
 10
0.0
 20
-1.5
 30
0.0
 40
3.0
  1
BRT
  7
LABEL
 72
1
 11
0.0
 21
-1.5
 31
0.0
100
AcDbText
 73
2
  0
ENDBLK
  5
F4
330
F2
100
AcDbEntity
  8
0
100
AcDbBlockEnd
  0
BLOCK
  5
F9
330
F8
100
AcDbEntity
  8
0
100
AcDbBlockBegin
  2
ROUNDABOUT
 70
0
 10
0.0
 20
0.0
 30
0.0
  3
ROUNDABOUT
  1

  0
CIRCLE
  5
FB
330
F8
100
AcDbEntity
  8
0
 62
7
370
35
100
AcDbCircle
 10
0.0
 20
0.0
 30
0.0
 40
15.0
  0
CIRCLE
  5
FC
330
F8
100
AcDbEntity
  8
0
 62
3
370
25
100
AcDbCircle
 10
0.0
 20
0.0
 30
0.0
 40
8.0
  0
HATCH
  5
FD
330
F8
100
AcDbEntity
  8
0
 62
82
100
AcDbHatch
 10
0.0
 20
0.0
 30
0.0
210
0.0
220
0.0
230
1.0
  2
SOLID
 70
1
 71
0
 91
1
 92
1
 93
1
 72
2
 10
0.0
 20
0.0
 40
8.0
 50
0.0
 51
360.0
 73
1
 97
0
 75
0
 76
1
 98
0
  0
ENDBLK
  5
FA
330
F8
100
AcDbEntity
  8
0
100
AcDbBlockEnd
  0
BLOCK
  5
FF
330
FE
100
AcDbEntity
  8
0
100
AcDbBlockBegin
  2
CAR_PLAN
 70
0
 10
0.0
 20
0.0
 30
0.0
  3
CAR_PLAN
  1

  0
LWPOLYLINE
  5
101
330
FE
100
AcDbEntity
  8
0
 62
8
370
13
100
AcDbPolyline
 90
4
 70
1
 10
0.0
 20
0.0
 10
2.5
 20
0.0
 10
2.5
 20
5.0
 10
0.0
 20
5.0
  0
LWPOLYLINE
  5
102
330
FE
100
AcDbEntity
  8
0
 62
8
370
9
100
AcDbPolyline
 90
4
 70
1
 10
0.3
 20
0.5
 10
2.2
 20
0.5
 10
2.2
 20
1.5
 10
0.3
 20
1.5
  0
LWPOLYLINE
  5
103
330
FE
100
AcDbEntity
  8
0
 62
8
370
9
100
AcDbPolyline
 90
4
 70
1
 10
0.3
 20
3.5
 10
2.2
 20
3.5
 10
2.2
 20
4.5
 10
0.3
 20
4.5
  0
ENDBLK
  5
100
330
FE
100
AcDbEntity
  8
0
100
AcDbBlockEnd
  0
BLOCK
  5
105
330
104
100
AcDbEntity
  8
0
100
AcDbBlockBegin
  2
PERSON_SECTION
 70
0
 10
0.0
 20
0.0
 30
0.0
  3
PERSON_SECTION
  1

  0
CIRCLE
  5
107
330
104
100
AcDbEntity
  8
0
 62
7
370
18
100
AcDbCircle
 10
0.0
 20
1.6
 30
0.0
 40
0.2
  0
LINE
  5
108
330
104
100
AcDbEntity
  8
0
 62
7
370
18
100
AcDbLine
 10
0.0
 20
1.4
 30
0.0
 11
0.0
 21
0.7
 31
0.0
  0
LINE
  5
109
330
104
100
AcDbEntity
  8
0
 62
7
370
18
100
AcDbLine
 10
0.0
 20
0.7
 30
0.0
 11
-0.3
 21
0.0
 31
0.0
  0
LINE
  5
10A
330
104
100
AcDbEntity
  8
0
 62
7
370
18
100
AcDbLine
 10
0.0
 20
0.7
 30
0.0
 11
0.3
 21
0.0
 31
0.0
  0
LINE
  5
10B
330
104
100
AcDbEntity
  8
0
 62
7
370
13
100
AcDbLine
 10
0.0
 20
1.2
 30
0.0
 11
-0.25
 21
0.9
 31
0.0
  0
LINE
  5
10C
330
104
100
AcDbEntity
  8
0
 62
7
370
13
100
AcDbLine
 10
0.0
 20
1.2
 30
0.0
 11
0.25
 21
0.9
 31
0.0
  0
ENDBLK
  5
106
330
104
100
AcDbEntity
  8
0
100
AcDbBlockEnd
  0
BLOCK
  5
10E
330
10D
100
AcDbEntity
  8
0
100
AcDbBlockBegin
  2
BLDG_RECT
 70
2
 10
0.0
 20
0.0
 30
0.0
  3
BLDG_RECT
  1

  0
LWPOLYLINE
  5
110
330
10D
100
AcDbEntity
  8
0
 62
7
370
35
100
AcDbPolyline
 90
4
 70
1
 10
0.0
 20
0.0
 10
1.0
 20
0.0
 10
1.0
 20
1.0
 10
0.0
 20
1.0
  0
ATTDEF
  5
111
330
10D
100
AcDbEntity
  8
0
 62
7
100
AcDbText
 10
0.1
 20
-0.15
 30
0.0
 40
0.12
  1

100
AcDbAttributeDefinition
  3

  2
TYPE
 70
0
  0
ENDBLK
  5
10F
330
10D
100
AcDbEntity
  8
0
100
AcDbBlockEnd
  0
BLOCK
  5
113
330
112
100
AcDbEntity
  8
0
100
AcDbBlockBegin
  2
MOSQUE
 70
0
 10
0.0
 20
0.0
 30
0.0
  3
MOSQUE
  1

  0
CIRCLE
  5
115
330
112
100
AcDbEntity
  8
0
 62
170
370
35
100
AcDbCircle
 10
0.0
 20
0.0
 30
0.0
 40
5.0
  0
ARC
  5
116
330
112
100
AcDbEntity
  8
0
 62
170
370
25
100
AcDbCircle
 10
0.0
 20
2.0
 30
0.0
 40
2.0
100
AcDbArc
 50
30.0
 51
330.0
  0
CIRCLE
  5
117
330
112
100
AcDbEntity
  8
0
 62
170
370
18
100
AcDbCircle
 10
1.0
 20
3.5
 30
0.0
 40
0.5
  0
ENDBLK
  5
114
330
112
100
AcDbEntity
  8
0
100
AcDbBlockEnd
  0
BLOCK
  5
359
330
358
100
AcDbEntity
  8
0
100
AcDbBlockBegin
  2
*D1
 70
1
 10
0.0
 20
0.0
 30
0.0
  3
*D1
  1

  0
LINE
  5
35B
330
358
100
AcDbEntity
  8
0
100
AcDbLine
 10
200.0
 20
1901.0
 30
0.0
 11
200.0
 21
1981.5
 31
0.0
  0
LINE
  5
35C
330
358
100
AcDbEntity
  8
0
100
AcDbLine
 10
1800.0
 20
1999.0
 30
0.0
 11
1800.0
 21
1978.5
 31
0.0
  0
INSERT
  5
35D
330
358
100
AcDbEntity
  8
DIMENSIONS
100
AcDbBlockReference
  2
_CLOSEDFILLED
 10
200.0
 20
1980.0
 30
0.0
 41
2.5
 42
2.5
 50
180.0
  0
INSERT
  5
35F
330
358
100
AcDbEntity
  8
DIMENSIONS
100
AcDbBlockReference
  2
_CLOSEDFILLED
 10
1800.0
 20
1980.0
 30
0.0
 41
2.5
 42
2.5
  0
LINE
  5
361
330
358
100
AcDbEntity
  8
0
100
AcDbLine
 10
202.5
 20
1980.0
 30
0.0
 11
1797.5
 21
1980.0
 31
0.0
  0
MTEXT
  5
362
330
358
100
AcDbEntity
  8
DIMENSIONS
100
AcDbMText
 10
1000.0
 20
1982.5
 30
0.0
 40
3.0
 71
5
  1
1600
  7
DIM
  0
POINT
  5
363
330
358
100
AcDbEntity
  8
Defpoints
100
AcDbPoint
 10
200.0
 20
1980.0
 30
0.0
  0
POINT
  5
364
330
358
100
AcDbEntity
  8
Defpoints
100
AcDbPoint
 10
200.0
 20
1900.0
 30
0.0
  0
POINT
  5
365
330
358
100
AcDbEntity
  8
Defpoints
100
AcDbPoint
 10
1800.0
 20
2000.0
 30
0.0
  0
ENDBLK
  5
35A
330
358
100
AcDbEntity
  8
0
100
AcDbBlockEnd
  0
BLOCK
  5
368
330
367
100
AcDbEntity
  8
0
100
AcDbBlockBegin
  2
*D2
 70
1
 10
0.0
 20
0.0
 30
0.0
  3
*D2
  1

  0
LINE
  5
36A
330
367
100
AcDbEntity
  8
0
100
AcDbLine
 10
150.0
 20
201.0
 30
0.0
 11
150.0
 21
201.5
 31
0.0
  0
LINE
  5
36B
330
367
100
AcDbEntity
  8
0
100
AcDbLine
 10
150.0
 20
1899.0
 30
0.0
 11
150.0
 21
198.5
 31
0.0
  0
INSERT
  5
36C
330
367
100
AcDbEntity
  8
DIMENSIONS
100
AcDbBlockReference
  2
_CLOSEDFILLED
 10
150.0
 20
200.0
 30
0.0
 41
2.5
 42
2.5
  0
INSERT
  5
36E
330
367
100
AcDbEntity
  8
DIMENSIONS
100
AcDbBlockReference
  2
_CLOSEDFILLED
 10
150.0
 20
200.0
 30
0.0
 41
2.5
 42
2.5
 50
180.0
  0
LINE
  5
370
330
367
100
AcDbEntity
  8
0
100
AcDbLine
 10
147.5
 20
200.0
 30
0.0
 11
145.0
 21
200.0
 31
0.0
  0
LINE
  5
371
330
367
100
AcDbEntity
  8
0
100
AcDbLine
 10
152.5
 20
200.0
 30
0.0
 11
155.0
 21
200.0
 31
0.0
  0
LINE
  5
372
330
367
100
AcDbEntity
  8
0
100
AcDbLine
 10
150.0
 20
200.0
 30
0.0
 11
150.0
 21
200.0
 31
0.0
  0
MTEXT
  5
373
330
367
100
AcDbEntity
  8
DIMENSIONS
100
AcDbMText
 10
150.0
 20
204.0
 30
0.0
 40
3.0
 71
5
  1
0
  7
DIM
  0
POINT
  5
374
330
367
100
AcDbEntity
  8
Defpoints
100
AcDbPoint
 10
150.0
 20
200.0
 30
0.0
  0
POINT
  5
375
330
367
100
AcDbEntity
  8
Defpoints
100
AcDbPoint
 10
150.0
 20
200.0
 30
0.0
  0
POINT
  5
376
330
367
100
AcDbEntity
  8
Defpoints
100
AcDbPoint
 10
150.0
 20
1900.0
 30
0.0
  0
ENDBLK
  5
369
330
367
100
AcDbEntity
  8
0
100
AcDbBlockEnd
  0
ENDSEC
  0
SECTION
  2
ENTITIES
  0
LWPOLYLINE
  5
118
330
17
100
AcDbEntity
  8
BORDER
100
AcDbPolyline
 90
4
 70
1
 10
-50.0
 20
-100.0
 10
2150.0
 20
-100.0
 10
2150.0
 20
1550.0
 10
-50.0
 20
1550.0
  0
LWPOLYLINE
  5
119
330
17
100
AcDbEntity
  8
TITLEBLOCK
100
AcDbPolyline
 90
4
 70
1
 10
1650.0
 20
-100.0
 10
2150.0
 20
-100.0
 10
2150.0
 20
50.0
 10
1650.0
 20
50.0
  0
LINE
  5
11A
330
17
100
AcDbEntity
  8
TITLEBLOCK
100
AcDbLine
 10
1650.0
 20
-50.0
 30
0.0
 11
2150.0
 21
-50.0
 31
0.0
  0
LINE
  5
11B
330
17
100
AcDbEntity
  8
TITLEBLOCK
100
AcDbLine
 10
1650.0
 20
0.0
 30
0.0
 11
2150.0
 21
0.0
 31
0.0
  0
LINE
  5
11C
330
17
100
AcDbEntity
  8
TITLEBLOCK
100
AcDbLine
 10
1900.0
 20
-100.0
 30
0.0
 11
1900.0
 21
-50.0
 31
0.0
  0
TEXT
  5
11D
330
17
100
AcDbEntity
  8
TEXT_TITLE
100
AcDbText
 10
1900.0
 20
25.0
 30
0.0
 40
12.0
  1
AL-TAL NEW CITY
  7
TITLE
 72
1
 11
1900.0
 21
25.0
 31
0.0
100
AcDbText
 73
2
  0
TEXT
  5
11E
330
17
100
AcDbEntity
  8
TEXT_TITLE
100
AcDbText
 10
1900.0
 20
8.0
 30
0.0
 40
6.0
  1
Mandatory Distribution Zone Replanning Competition
  7
SUBTITLE
 72
1
 11
1900.0
 21
8.0
 31
0.0
100
AcDbText
 73
2
  0
TEXT
  5
11F
330
17
100
AcDbEntity
  8
TEXT_TITLE
100
AcDbText
 10
1900.0
 20
-20.0
 30
0.0
 40
10.0
  1
MASTER PLAN
  7
TITLE
 72
1
 11
1900.0
 21
-20.0
 31
0.0
100
AcDbText
 73
2
  0
TEXT
  5
120
330
17
100
AcDbEntity
  8
TEXT_NOTE
100
AcDbText
 10
1900.0
 20
-35.0
 30
0.0
 40
5.0
  1
Land Use & Zoning | Scale 1:2000
  7
NOTE
 72
1
 11
1900.0
 21
-35.0
 31
0.0
100
AcDbText
 73
2
  0
TEXT
  5
121
330
17
100
AcDbEntity
  8
TEXT_LABEL
100
AcDbText
 10
1775.0
 20
-70.0
 30
0.0
 40
5.0
  1
Scale: 1:2000
  7
LABEL
 72
1
 11
1775.0
 21
-70.0
 31
0.0
100
AcDbText
 73
2
  0
TEXT
  5
122
330
17
100
AcDbEntity
  8
TEXT_NOTE
100
AcDbText
 10
1775.0
 20
-85.0
 30
0.0
 40
4.0
  1
Date: March 2026
  7
NOTE
 72
1
 11
1775.0
 21
-85.0
 31
0.0
100
AcDbText
 73
2
  0
TEXT
  5
123
330
17
100
AcDbEntity
  8
TEXT_LABEL
100
AcDbText
 10
2025.0
 20
-70.0
 30
0.0
 40
5.0
  1
Sheet: 1/6
  7
LABEL
 72
1
 11
2025.0
 21
-70.0
 31
0.0
100
AcDbText
 73
2
  0
TEXT
  5
124
330
17
100
AcDbEntity
  8
TEXT_NOTE
100
AcDbText
 10
2025.0
 20
-85.0
 30
0.0
 40
4.0
  1
Dwg: MP-001
  7
NOTE
 72
1
 11
2025.0
 21
-85.0
 31
0.0
100
AcDbText
 73
2
  0
TEXT
  5
125
330
17
100
AcDbEntity
  8
TEXT_NOTE
100
AcDbText
 10
1900.0
 20
-97.0
 30
0.0
 40
4.0
  1
Syrian Arab Republic - Rif Dimashq - Al-Tal
  7
NOTE
 72
1
 11
1900.0
 21
-97.0
 31
0.0
100
AcDbText
 73
2
  0
LWPOLYLINE
  5
126
330
17
100
AcDbEntity
  8
SITE_BOUNDARY
100
AcDbPolyline
 90
18
 70
1
 10
200.0
 20
1900.0
 10
600.0
 20
2000.0
 10
1000.0
 20
2050.0
 10
1400.0
 20
2020.0
 10
1800.0
 20
2000.0
 10
2100.0
 20
1700.0
 10
2200.0
 20
1300.0
 10
2200.0
 20
900.0
 10
2100.0
 20
600.0
 10
1900.0
 20
350.0
 10
1600.0
 20
200.0
 10
1200.0
 20
100.0
 10
800.0
 20
150.0
 10
500.0
 20
300.0
 10
300.0
 20
550.0
 10
200.0
 20
850.0
 10
150.0
 20
1200.0
 10
150.0
 20
1600.0
  0
LWPOLYLINE
  5
127
330
17
100
AcDbEntity
  8
SITE_BOUNDARY
100
AcDbPolyline
 90
5
 70
1
 10
-400.0
 20
-200.0
 10
200.0
 20
-100.0
 10
300.0
 20
-500.0
 10
100.0
 20
-700.0
 10
-500.0
 20
-600.0
  0
LWPOLYLINE
  5
128
330
17
100
AcDbEntity
  8
SITE_BOUNDARY
100
AcDbPolyline
 90
4
 70
1
 10
500.0
 20
-300.0
 10
900.0
 20
-350.0
 10
950.0
 20
-600.0
 10
550.0
 20
-550.0
  0
TEXT
  5
129
330
17
100
AcDbEntity
  8
TEXT_TITLE
100
AcDbText
 10
1100.0
 20
2100.0
 30
0.0
 40
25.0
  1
ZONE A - 445 ha
  7
TITLE
 72
1
 11
1100.0
 21
2100.0
 31
0.0
100
AcDbText
 73
2
  0
TEXT
  5
12A
330
17
100
AcDbEntity
  8
TEXT_TITLE
100
AcDbText
 10
-100.0
 20
-400.0
 30
0.0
 40
16.0
  1
ZONE B - 54 ha
  7
TITLE
 72
1
 11
-100.0
 21
-400.0
 31
0.0
100
AcDbText
 73
2
  0
TEXT
  5
12B
330
17
100
AcDbEntity
  8
TEXT_TITLE
100
AcDbText
 10
725.0
 20
-450.0
 30
0.0
 40
12.0
  1
ZONE C - 6.5 ha
  7
TITLE
 72
1
 11
725.0
 21
-450.0
 31
0.0
100
AcDbText
 73
2
  0
LWPOLYLINE
  5
12C
330
17
100
AcDbEntity
  8
ZONE_BOUNDARY
100
AcDbPolyline
 90
4
 70
1
 10
200.0
 20
1400.0
 10
700.0
 20
1400.0
 10
750.0
 20
1900.0
 10
200.0
 20
1900.0
  0
HATCH
  5
12D
330
17
100
AcDbEntity
  8
HATCH_RESIDENTIAL_LOW
 62
7
100
AcDbHatch
 10
0.0
 20
0.0
 30
0.0
210
0.0
220
0.0
230
1.0
  2
ANSI31
 70
0
 71
0
 91
1
 92
3
 72
0
 73
1
 93
4
 10
200.0
 20
1400.0
 10
700.0
 20
1400.0
 10
750.0
 20
1900.0
 10
200.0
 20
1900.0
 97
0
 75
1
 76
1
 52
0.0
 41
15.0
 77
0
 78
1
 53
45.0
 43
0.0
 44
0.0
 45
-33.6759604545
 46
33.6759604545
 79
0
 98
0
  0
TEXT
  5
12E
330
17
100
AcDbEntity
  8
TEXT_LABEL
100
AcDbText
 10
400.0
 20
1700.0
 30
0.0
 40
14.0
  1
R1 - VILLAS
  7
LABEL
 72
1
 11
400.0
 21
1700.0
 31
0.0
100
AcDbText
 73
2
  0
TEXT
  5
12F
330
17
100
AcDbEntity
  8
TEXT_NOTE
100
AcDbText
 10
400.0
 20
1660.0
 30
0.0
 40
8.0
  1
2 Floors | FAR 0.8 | 300-500m2 lots
  7
NOTE
 72
1
 11
400.0
 21
1660.0
 31
0.0
100
AcDbText
 73
2
  0
LINE
  5
130
330
17
100
AcDbEntity
  8
LOT_GRID
100
AcDbLine
 10
200.0
 20
1400.0
 30
0.0
 11
200.0
 21
1900.0
 31
0.0
  0
LINE
  5
131
330
17
100
AcDbEntity
  8
LOT_GRID
100
AcDbLine
 10
280.0
 20
1400.0
 30
0.0
 11
280.0
 21
1900.0
 31
0.0
  0
LINE
  5
132
330
17
100
AcDbEntity
  8
LOT_GRID
100
AcDbLine
 10
360.0
 20
1400.0
 30
0.0
 11
360.0
 21
1900.0
 31
0.0
  0
LINE
  5
133
330
17
100
AcDbEntity
  8
LOT_GRID
100
AcDbLine
 10
440.0
 20
1400.0
 30
0.0
 11
440.0
 21
1900.0
 31
0.0
  0
LINE
  5
134
330
17
100
AcDbEntity
  8
LOT_GRID
100
AcDbLine
 10
520.0
 20
1400.0
 30
0.0
 11
520.0
 21
1900.0
 31
0.0
  0
LINE
  5
135
330
17
100
AcDbEntity
  8
LOT_GRID
100
AcDbLine
 10
600.0
 20
1400.0
 30
0.0
 11
600.0
 21
1900.0
 31
0.0
  0
LINE
  5
136
330
17
100
AcDbEntity
  8
LOT_GRID
100
AcDbLine
 10
680.0
 20
1400.0
 30
0.0
 11
680.0
 21
1900.0
 31
0.0
  0
LINE
  5
137
330
17
100
AcDbEntity
  8
LOT_GRID
100
AcDbLine
 10
200.0
 20
1400.0
 30
0.0
 11
700.0
 21
1400.0
 31
0.0
  0
LINE
  5
138
330
17
100
AcDbEntity
  8
LOT_GRID
100
AcDbLine
 10
200.0
 20
1472.0
 30
0.0
 11
700.0
 21
1472.0
 31
0.0
  0
LINE
  5
139
330
17
100
AcDbEntity
  8
LOT_GRID
100
AcDbLine
 10
200.0
 20
1544.0
 30
0.0
 11
700.0
 21
1544.0
 31
0.0
  0
LINE
  5
13A
330
17
100
AcDbEntity
  8
LOT_GRID
100
AcDbLine
 10
200.0
 20
1616.0
 30
0.0
 11
700.0
 21
1616.0
 31
0.0
  0
LINE
  5
13B
330
17
100
AcDbEntity
  8
LOT_GRID
100
AcDbLine
 10
200.0
 20
1688.0
 30
0.0
 11
700.0
 21
1688.0
 31
0.0
  0
LINE
  5
13C
330
17
100
AcDbEntity
  8
LOT_GRID
100
AcDbLine
 10
200.0
 20
1760.0
 30
0.0
 11
700.0
 21
1760.0
 31
0.0
  0
LINE
  5
13D
330
17
100
AcDbEntity
  8
LOT_GRID
100
AcDbLine
 10
200.0
 20
1832.0
 30
0.0
 11
700.0
 21
1832.0
 31
0.0
  0
LWPOLYLINE
  5
13E
330
17
100
AcDbEntity
  8
ZONE_BOUNDARY
100
AcDbPolyline
 90
4
 70
1
 10
1200.0
 20
1400.0
 10
1900.0
 20
1400.0
 10
2000.0
 20
2000.0
 10
1200.0
 20
1950.0
  0
HATCH
  5
13F
330
17
100
AcDbEntity
  8
HATCH_RESIDENTIAL_MED
 62
7
100
AcDbHatch
 10
0.0
 20
0.0
 30
0.0
210
0.0
220
0.0
230
1.0
  2
ANSI33
 70
0
 71
0
 91
1
 92
3
 72
0
 73
1
 93
4
 10
1200.0
 20
1400.0
 10
1900.0
 20
1400.0
 10
2000.0
 20
2000.0
 10
1200.0
 20
1950.0
 97
0
 75
1
 76
1
 52
0.0
 41
12.0
 77
0
 78
2
 53
45.0
 43
0.0
 44
0.0
 45
-53.881536726
 46
53.881536726
 79
0
 53
45.0
 43
53.881536636
 44
0.0
 45
-53.881536726
 46
53.881536726
 79
2
 49
38.1
 49
-19.05
 98
0
  0
TEXT
  5
140
330
17
100
AcDbEntity
  8
TEXT_LABEL
100
AcDbText
 10
1550.0
 20
1700.0
 30
0.0
 40
14.0
  1
R2 - MIDRISE 4-6 FL
  7
LABEL
 72
1
 11
1550.0
 21
1700.0
 31
0.0
100
AcDbText
 73
2
  0
TEXT
  5
141
330
17
100
AcDbEntity
  8
TEXT_NOTE
100
AcDbText
 10
1550.0
 20
1660.0
 30
0.0
 40
8.0
  1
FAR 1.6-2.0 | 500-800m2 lots
  7
NOTE
 72
1
 11
1550.0
 21
1660.0
 31
0.0
100
AcDbText
 73
2
  0
LINE
  5
142
330
17
100
AcDbEntity
  8
LOT_GRID
100
AcDbLine
 10
1200.0
 20
1400.0
 30
0.0
 11
1200.0
 21
2000.0
 31
0.0
  0
LINE
  5
143
330
17
100
AcDbEntity
  8
LOT_GRID
100
AcDbLine
 10
1330.0
 20
1400.0
 30
0.0
 11
1330.0
 21
2000.0
 31
0.0
  0
LINE
  5
144
330
17
100
AcDbEntity
  8
LOT_GRID
100
AcDbLine
 10
1460.0
 20
1400.0
 30
0.0
 11
1460.0
 21
2000.0
 31
0.0
  0
LINE
  5
145
330
17
100
AcDbEntity
  8
LOT_GRID
100
AcDbLine
 10
1590.0
 20
1400.0
 30
0.0
 11
1590.0
 21
2000.0
 31
0.0
  0
LINE
  5
146
330
17
100
AcDbEntity
  8
LOT_GRID
100
AcDbLine
 10
1720.0
 20
1400.0
 30
0.0
 11
1720.0
 21
2000.0
 31
0.0
  0
LINE
  5
147
330
17
100
AcDbEntity
  8
LOT_GRID
100
AcDbLine
 10
1850.0
 20
1400.0
 30
0.0
 11
1850.0
 21
2000.0
 31
0.0
  0
LINE
  5
148
330
17
100
AcDbEntity
  8
LOT_GRID
100
AcDbLine
 10
1200.0
 20
1400.0
 30
0.0
 11
1900.0
 21
1400.0
 31
0.0
  0
LINE
  5
149
330
17
100
AcDbEntity
  8
LOT_GRID
100
AcDbLine
 10
1200.0
 20
1520.0
 30
0.0
 11
1900.0
 21
1520.0
 31
0.0
  0
LINE
  5
14A
330
17
100
AcDbEntity
  8
LOT_GRID
100
AcDbLine
 10
1200.0
 20
1640.0
 30
0.0
 11
1900.0
 21
1640.0
 31
0.0
  0
LINE
  5
14B
330
17
100
AcDbEntity
  8
LOT_GRID
100
AcDbLine
 10
1200.0
 20
1760.0
 30
0.0
 11
1900.0
 21
1760.0
 31
0.0
  0
LINE
  5
14C
330
17
100
AcDbEntity
  8
LOT_GRID
100
AcDbLine
 10
1200.0
 20
1880.0
 30
0.0
 11
1900.0
 21
1880.0
 31
0.0
  0
LWPOLYLINE
  5
14D
330
17
100
AcDbEntity
  8
ZONE_BOUNDARY
100
AcDbPolyline
 90
4
 70
1
 10
1400.0
 20
700.0
 10
2100.0
 20
700.0
 10
2200.0
 20
1300.0
 10
1500.0
 20
1300.0
  0
HATCH
  5
14E
330
17
100
AcDbEntity
  8
HATCH_RESIDENTIAL_HIGH
 62
7
100
AcDbHatch
 10
0.0
 20
0.0
 30
0.0
210
0.0
220
0.0
230
1.0
  2
ANSI37
 70
0
 71
0
 91
1
 92
3
 72
0
 73
1
 93
4
 10
1400.0
 20
700.0
 10
2100.0
 20
700.0
 10
2200.0
 20
1300.0
 10
1500.0
 20
1300.0
 97
0
 75
1
 76
1
 52
0.0
 41
10.0
 77
0
 78
2
 53
45.0
 43
0.0
 44
0.0
 45
-22.450640303
 46
22.450640303
 79
0
 53
135.0
 43
0.0
 44
0.0
 45
-22.450640303
 46
-22.450640303
 79
0
 98
0
  0
TEXT
  5
14F
330
17
100
AcDbEntity
  8
TEXT_LABEL
100
AcDbText
 10
1750.0
 20
1000.0
 30
0.0
 40
14.0
  1
R3 - HIGH DENSITY 6-8 FL
  7
LABEL
 72
1
 11
1750.0
 21
1000.0
 31
0.0
100
AcDbText
 73
2
  0
TEXT
  5
150
330
17
100
AcDbEntity
  8
TEXT_NOTE
100
AcDbText
 10
1750.0
 20
960.0
 30
0.0
 40
8.0
  1
FAR 2.0-2.4 | Mixed Use Ground Floor
  7
NOTE
 72
1
 11
1750.0
 21
960.0
 31
0.0
100
AcDbText
 73
2
  0
LWPOLYLINE
  5
151
330
17
100
AcDbEntity
  8
ZONE_BOUNDARY
100
AcDbPolyline
 90
4
 70
1
 10
500.0
 20
200.0
 10
1400.0
 20
200.0
 10
1400.0
 20
700.0
 10
500.0
 20
700.0
  0
HATCH
  5
152
330
17
100
AcDbEntity
  8
HATCH_RESIDENTIAL_MED
 62
7
100
AcDbHatch
 10
0.0
 20
0.0
 30
0.0
210
0.0
220
0.0
230
1.0
  2
ANSI33
 70
0
 71
0
 91
1
 92
3
 72
0
 73
1
 93
4
 10
500.0
 20
200.0
 10
1400.0
 20
200.0
 10
1400.0
 20
700.0
 10
500.0
 20
700.0
 97
0
 75
1
 76
1
 52
0.0
 41
12.0
 77
0
 78
2
 53
45.0
 43
0.0
 44
0.0
 45
-53.881536726
 46
53.881536726
 79
0
 53
45.0
 43
53.881536636
 44
0.0
 45
-53.881536726
 46
53.881536726
 79
2
 49
38.1
 49
-19.05
 98
0
  0
TEXT
  5
153
330
17
100
AcDbEntity
  8
TEXT_LABEL
100
AcDbText
 10
950.0
 20
450.0
 30
0.0
 40
14.0
  1
R4 - MIXED RESIDENTIAL
  7
LABEL
 72
1
 11
950.0
 21
450.0
 31
0.0
100
AcDbText
 73
2
  0
LINE
  5
154
330
17
100
AcDbEntity
  8
LOT_GRID
100
AcDbLine
 10
500.0
 20
200.0
 30
0.0
 11
500.0
 21
700.0
 31
0.0
  0
LINE
  5
155
330
17
100
AcDbEntity
  8
LOT_GRID
100
AcDbLine
 10
612.0
 20
200.0
 30
0.0
 11
612.0
 21
700.0
 31
0.0
  0
LINE
  5
156
330
17
100
AcDbEntity
  8
LOT_GRID
100
AcDbLine
 10
724.0
 20
200.0
 30
0.0
 11
724.0
 21
700.0
 31
0.0
  0
LINE
  5
157
330
17
100
AcDbEntity
  8
LOT_GRID
100
AcDbLine
 10
836.0
 20
200.0
 30
0.0
 11
836.0
 21
700.0
 31
0.0
  0
LINE
  5
158
330
17
100
AcDbEntity
  8
LOT_GRID
100
AcDbLine
 10
948.0
 20
200.0
 30
0.0
 11
948.0
 21
700.0
 31
0.0
  0
LINE
  5
159
330
17
100
AcDbEntity
  8
LOT_GRID
100
AcDbLine
 10
1060.0
 20
200.0
 30
0.0
 11
1060.0
 21
700.0
 31
0.0
  0
LINE
  5
15A
330
17
100
AcDbEntity
  8
LOT_GRID
100
AcDbLine
 10
1172.0
 20
200.0
 30
0.0
 11
1172.0
 21
700.0
 31
0.0
  0
LINE
  5
15B
330
17
100
AcDbEntity
  8
LOT_GRID
100
AcDbLine
 10
1284.0
 20
200.0
 30
0.0
 11
1284.0
 21
700.0
 31
0.0
  0
LINE
  5
15C
330
17
100
AcDbEntity
  8
LOT_GRID
100
AcDbLine
 10
500.0
 20
200.0
 30
0.0
 11
1400.0
 21
200.0
 31
0.0
  0
LINE
  5
15D
330
17
100
AcDbEntity
  8
LOT_GRID
100
AcDbLine
 10
500.0
 20
300.0
 30
0.0
 11
1400.0
 21
300.0
 31
0.0
  0
LINE
  5
15E
330
17
100
AcDbEntity
  8
LOT_GRID
100
AcDbLine
 10
500.0
 20
400.0
 30
0.0
 11
1400.0
 21
400.0
 31
0.0
  0
LINE
  5
15F
330
17
100
AcDbEntity
  8
LOT_GRID
100
AcDbLine
 10
500.0
 20
500.0
 30
0.0
 11
1400.0
 21
500.0
 31
0.0
  0
LINE
  5
160
330
17
100
AcDbEntity
  8
LOT_GRID
100
AcDbLine
 10
500.0
 20
600.0
 30
0.0
 11
1400.0
 21
600.0
 31
0.0
  0
LWPOLYLINE
  5
161
330
17
100
AcDbEntity
  8
ZONE_BOUNDARY
100
AcDbPolyline
 90
4
 70
1
 10
150.0
 20
850.0
 10
500.0
 20
850.0
 10
500.0
 20
1400.0
 10
200.0
 20
1400.0
  0
HATCH
  5
162
330
17
100
AcDbEntity
  8
HATCH_RESIDENTIAL_LOW
 62
7
100
AcDbHatch
 10
0.0
 20
0.0
 30
0.0
210
0.0
220
0.0
230
1.0
  2
ANSI31
 70
0
 71
0
 91
1
 92
3
 72
0
 73
1
 93
4
 10
150.0
 20
850.0
 10
500.0
 20
850.0
 10
500.0
 20
1400.0
 10
200.0
 20
1400.0
 97
0
 75
1
 76
1
 52
0.0
 41
15.0
 77
0
 78
1
 53
45.0
 43
0.0
 44
0.0
 45
-33.6759604545
 46
33.6759604545
 79
0
 98
0
  0
TEXT
  5
163
330
17
100
AcDbEntity
  8
TEXT_LABEL
100
AcDbText
 10
325.0
 20
1100.0
 30
0.0
 40
12.0
  1
R5 - VILLAS
  7
LABEL
 72
1
 11
325.0
 21
1100.0
 31
0.0
100
AcDbText
 73
2
  0
LWPOLYLINE
  5
164
330
17
100
AcDbEntity
  8
ZONE_BOUNDARY
100
AcDbPolyline
 90
4
 70
1
 10
750.0
 20
800.0
 10
1400.0
 20
800.0
 10
1400.0
 20
1400.0
 10
800.0
 20
1400.0
  0
HATCH
  5
165
330
17
100
AcDbEntity
  8
HATCH_COMMERCIAL
 62
7
100
AcDbHatch
 10
0.0
 20
0.0
 30
0.0
210
0.0
220
0.0
230
1.0
  2
CROSS
 70
0
 71
0
 91
1
 92
3
 72
0
 73
1
 93
4
 10
750.0
 20
800.0
 10
1400.0
 20
800.0
 10
1400.0
 20
1400.0
 10
800.0
 20
1400.0
 97
0
 75
1
 76
1
 52
0.0
 41
8.0
 77
0
 78
2
 53
0.0
 43
0.0
 44
0.0
 45
50.8
 46
50.8
 79
2
 49
25.4
 49
-76.2
 53
90.0
 43
12.7
 44
-12.7
 45
-50.8
 46
50.8
 79
2
 49
25.4
 49
-76.2
 98
0
  0
TEXT
  5
166
330
17
100
AcDbEntity
  8
TEXT_TITLE
100
AcDbText
 10
1075.0
 20
1150.0
 30
0.0
 40
20.0
  1
CITY CENTER
  7
TITLE
 72
1
 11
1075.0
 21
1150.0
 31
0.0
100
AcDbText
 73
2
  0
TEXT
  5
167
330
17
100
AcDbEntity
  8
TEXT_NOTE
100
AcDbText
 10
1075.0
 20
1100.0
 30
0.0
 40
10.0
  1
Commercial + Administrative + Cultural
  7
NOTE
 72
1
 11
1075.0
 21
1100.0
 31
0.0
100
AcDbText
 73
2
  0
TEXT
  5
168
330
17
100
AcDbEntity
  8
TEXT_NOTE
100
AcDbText
 10
1075.0
 20
1060.0
 30
0.0
 40
10.0
  1
Towers 10-14 FL | FAR 2.4-3.5
  7
NOTE
 72
1
 11
1075.0
 21
1060.0
 31
0.0
100
AcDbText
 73
2
  0
LWPOLYLINE
  5
169
330
17
100
AcDbEntity
  8
GREEN_CORRIDOR
100
AcDbPolyline
 90
36
 70
1
 10
1230.0
 20
650.0
 10
1228.025007891587
 20
663.8918542133545
 10
1222.160040702168
 20
677.3616114660535
 10
1212.583302491977
 20
690.0
 10
1199.5857776054672
 20
701.4230087749231
 10
1183.56238925925
 20
711.2835554495182
 10
1165.0
 20
719.282032302755
 10
1144.462618632337
 20
725.1754096628727
 10
1122.5742630967009
 20
728.7846202409767
 10
1100.0
 20
730.0
 10
1077.4257369032991
 20
728.7846202409767
 10
1055.537381367663
 20
725.1754096628727
 10
1035.0
 20
719.282032302755
 10
1016.4376107407498
 20
711.2835554495182
 10
1000.4142223945329
 20
701.4230087749231
 10
987.4166975080229
 20
690.0
 10
977.8399592978319
 20
677.3616114660535
 10
971.974992108413
 20
663.8918542133545
 10
970.0
 20
650.0
 10
971.974992108413
 20
636.1081457866455
 10
977.8399592978319
 20
622.6383885339465
 10
987.4166975080229
 20
610.0
 10
1000.4142223945329
 20
598.5769912250769
 10
1016.4376107407498
 20
588.7164445504818
 10
1035.0
 20
580.717967697245
 10
1055.537381367663
 20
574.8245903371273
 10
1077.4257369032991
 20
571.2153797590233
 10
1100.0
 20
570.0
 10
1122.5742630967009
 20
571.2153797590233
 10
1144.462618632337
 20
574.8245903371273
 10
1165.0
 20
580.717967697245
 10
1183.56238925925
 20
588.7164445504818
 10
1199.5857776054672
 20
598.5769912250769
 10
1212.583302491977
 20
610.0
 10
1222.160040702168
 20
622.6383885339465
 10
1228.025007891587
 20
636.1081457866455
  0
HATCH
  5
16A
330
17
100
AcDbEntity
  8
HATCH_GREEN
 62
7
100
AcDbHatch
 10
0.0
 20
0.0
 30
0.0
210
0.0
220
0.0
230
1.0
  2
GRASS
 70
0
 71
0
 91
1
 92
3
 72
0
 73
1
 93
36
 10
1230.0
 20
650.0
 10
1228.025007891587
 20
663.8918542133545
 10
1222.160040702168
 20
677.3616114660535
 10
1212.583302491977
 20
690.0
 10
1199.5857776054672
 20
701.4230087749231
 10
1183.56238925925
 20
711.2835554495182
 10
1165.0
 20
719.282032302755
 10
1144.462618632337
 20
725.1754096628727
 10
1122.5742630967009
 20
728.7846202409767
 10
1100.0
 20
730.0
 10
1077.4257369032991
 20
728.7846202409767
 10
1055.537381367663
 20
725.1754096628727
 10
1035.0
 20
719.282032302755
 10
1016.4376107407498
 20
711.2835554495182
 10
1000.4142223945329
 20
701.4230087749231
 10
987.4166975080229
 20
690.0
 10
977.8399592978319
 20
677.3616114660535
 10
971.974992108413
 20
663.8918542133545
 10
970.0
 20
650.0
 10
971.974992108413
 20
636.1081457866455
 10
977.8399592978319
 20
622.6383885339465
 10
987.4166975080229
 20
610.0
 10
1000.4142223945329
 20
598.5769912250769
 10
1016.4376107407498
 20
588.7164445504818
 10
1035.0
 20
580.717967697245
 10
1055.537381367663
 20
574.8245903371273
 10
1077.4257369032991
 20
571.2153797590233
 10
1100.0
 20
570.0
 10
1122.5742630967009
 20
571.2153797590233
 10
1144.462618632337
 20
574.8245903371273
 10
1165.0
 20
580.717967697245
 10
1183.56238925925
 20
588.7164445504818
 10
1199.5857776054672
 20
598.5769912250769
 10
1212.583302491977
 20
610.0
 10
1222.160040702168
 20
622.6383885339465
 10
1228.025007891587
 20
636.1081457866455
 97
0
 75
1
 76
1
 52
0.0
 41
8.0
 77
0
 78
3
 53
90.0
 43
0.0
 44
0.0
 45
-143.68409792
 46
143.68409792
 79
2
 49
38.1
 49
-249.26819584
 53
45.0
 43
0.0
 44
0.0
 45
-143.6840979368
 46
143.6840979368
 79
2
 49
38.1
 49
-165.1
 53
135.0
 43
0.0
 44
0.0
 45
-143.6840979368
 46
-143.6840979368
 79
2
 49
38.1
 49
-165.1
 98
0
  0
TEXT
  5
16B
330
17
100
AcDbEntity
  8
TEXT_LABEL
100
AcDbText
 10
1100.0
 20
660.0
 30
0.0
 40
12.0
  1
CENTRAL PARK
  7
LABEL
 72
1
 11
1100.0
 21
660.0
 31
0.0
100
AcDbText
 73
2
  0
TEXT
  5
16C
330
17
100
AcDbEntity
  8
TEXT_NOTE
100
AcDbText
 10
1100.0
 20
625.0
 30
0.0
 40
8.0
  1
15 ha
  7
NOTE
 72
1
 11
1100.0
 21
625.0
 31
0.0
100
AcDbText
 73
2
  0
LWPOLYLINE
  5
16D
330
17
100
AcDbEntity
  8
GREEN_CORRIDOR
100
AcDbPolyline
 90
10
 70
1
 10
585.0
 20
2000.0
 10
565.0
 20
1500.0
 10
555.0
 20
1000.0
 10
575.0
 20
500.0
 10
585.0
 20
100.0
 10
615.0
 20
2000.0
 10
635.0
 20
1500.0
 10
645.0
 20
1000.0
 10
625.0
 20
500.0
 10
615.0
 20
100.0
  0
HATCH
  5
16E
330
17
100
AcDbEntity
  8
HATCH_GREEN
 62
7
100
AcDbHatch
 10
0.0
 20
0.0
 30
0.0
210
0.0
220
0.0
230
1.0
  2
GRASS
 70
0
 71
0
 91
1
 92
3
 72
0
 73
1
 93
10
 10
585.0
 20
2000.0
 10
565.0
 20
1500.0
 10
555.0
 20
1000.0
 10
575.0
 20
500.0
 10
585.0
 20
100.0
 10
615.0
 20
2000.0
 10
635.0
 20
1500.0
 10
645.0
 20
1000.0
 10
625.0
 20
500.0
 10
615.0
 20
100.0
 97
0
 75
1
 76
1
 52
0.0
 41
10.0
 77
0
 78
3
 53
90.0
 43
0.0
 44
0.0
 45
-179.6051224
 46
179.6051224
 79
2
 49
47.625
 49
-311.5852448
 53
45.0
 43
0.0
 44
0.0
 45
-179.605122421
 46
179.605122421
 79
2
 49
47.625
 49
-206.375
 53
135.0
 43
0.0
 44
0.0
 45
-179.605122421
 46
-179.605122421
 79
2
 49
47.625
 49
-206.375
 98
0
  0
LWPOLYLINE
  5
16F
330
17
100
AcDbEntity
  8
GREEN_CORRIDOR
100
AcDbPolyline
 90
10
 70
1
 10
1588.0
 20
2000.0
 10
1568.0
 20
1500.0
 10
1558.0
 20
1000.0
 10
1578.0
 20
500.0
 10
1588.0
 20
100.0
 10
1612.0
 20
2000.0
 10
1632.0
 20
1500.0
 10
1642.0
 20
1000.0
 10
1622.0
 20
500.0
 10
1612.0
 20
100.0
  0
HATCH
  5
170
330
17
100
AcDbEntity
  8
HATCH_GREEN
 62
7
100
AcDbHatch
 10
0.0
 20
0.0
 30
0.0
210
0.0
220
0.0
230
1.0
  2
GRASS
 70
0
 71
0
 91
1
 92
3
 72
0
 73
1
 93
10
 10
1588.0
 20
2000.0
 10
1568.0
 20
1500.0
 10
1558.0
 20
1000.0
 10
1578.0
 20
500.0
 10
1588.0
 20
100.0
 10
1612.0
 20
2000.0
 10
1632.0
 20
1500.0
 10
1642.0
 20
1000.0
 10
1622.0
 20
500.0
 10
1612.0
 20
100.0
 97
0
 75
1
 76
1
 52
0.0
 41
10.0
 77
0
 78
3
 53
90.0
 43
0.0
 44
0.0
 45
-179.6051224
 46
179.6051224
 79
2
 49
47.625
 49
-311.5852448
 53
45.0
 43
0.0
 44
0.0
 45
-179.605122421
 46
179.605122421
 79
2
 49
47.625
 49
-206.375
 53
135.0
 43
0.0
 44
0.0
 45
-179.605122421
 46
-179.605122421
 79
2
 49
47.625
 49
-206.375
 98
0
  0
LWPOLYLINE
  5
171
330
17
100
AcDbEntity
  8
GREEN_BELT
100
AcDbPolyline
 90
4
 70
1
 10
2200.0
 20
100.0
 10
2225.0
 20
100.0
 10
2225.0
 20
2000.0
 10
2200.0
 20
2000.0
  0
HATCH
  5
172
330
17
100
AcDbEntity
  8
HATCH_GREEN
 62
7
100
AcDbHatch
 10
0.0
 20
0.0
 30
0.0
210
0.0
220
0.0
230
1.0
  2
GRASS
 70
0
 71
0
 91
1
 92
3
 72
0
 73
1
 93
4
 10
2200.0
 20
100.0
 10
2225.0
 20
100.0
 10
2225.0
 20
2000.0
 10
2200.0
 20
2000.0
 97
0
 75
1
 76
1
 52
0.0
 41
5.0
 77
0
 78
3
 53
90.0
 43
0.0
 44
0.0
 45
-89.8025612
 46
89.8025612
 79
2
 49
23.8125
 49
-155.7926224
 53
45.0
 43
0.0
 44
0.0
 45
-89.8025612105
 46
89.8025612105
 79
2
 49
23.8125
 49
-103.1875
 53
135.0
 43
0.0
 44
0.0
 45
-89.8025612105
 46
-89.8025612105
 79
2
 49
23.8125
 49
-103.1875
 98
0
  0
TEXT
  5
173
330
17
100
AcDbEntity
  8
TEXT_NOTE
100
AcDbText
 10
2215.0
 20
1000.0
 30
0.0
 40
8.0
  1
25m GREEN BELT
 50
90.0
  7
NOTE
 11
2215.0
 21
1000.0
 31
0.0
100
AcDbText
  0
INSERT
  5
174
330
17
100
AcDbEntity
  8
TREES
100
AcDbBlockReference
  2
TREE_PLAN
 10
332.0
 20
1688.0
 30
0.0
  0
INSERT
  5
176
330
17
100
AcDbEntity
  8
TREES
100
AcDbBlockReference
  2
TREE_PLAN
 10
332.0
 20
1700.0
 30
0.0
  0
INSERT
  5
178
330
17
100
AcDbEntity
  8
TREES
100
AcDbBlockReference
  2
TREE_PLAN
 10
332.0
 20
1712.0
 30
0.0
  0
INSERT
  5
17A
330
17
100
AcDbEntity
  8
TREES
100
AcDbBlockReference
  2
TREE_PLAN
 10
344.0
 20
1688.0
 30
0.0
  0
INSERT
  5
17C
330
17
100
AcDbEntity
  8
TREES
100
AcDbBlockReference
  2
TREE_PLAN
 10
344.0
 20
1700.0
 30
0.0
  0
INSERT
  5
17E
330
17
100
AcDbEntity
  8
TREES
100
AcDbBlockReference
  2
TREE_PLAN
 10
344.0
 20
1712.0
 30
0.0
  0
INSERT
  5
180
330
17
100
AcDbEntity
  8
TREES
100
AcDbBlockReference
  2
TREE_PLAN
 10
356.0
 20
1688.0
 30
0.0
  0
INSERT
  5
182
330
17
100
AcDbEntity
  8
TREES
100
AcDbBlockReference
  2
TREE_PLAN
 10
356.0
 20
1700.0
 30
0.0
  0
INSERT
  5
184
330
17
100
AcDbEntity
  8
TREES
100
AcDbBlockReference
  2
TREE_PLAN
 10
356.0
 20
1712.0
 30
0.0
  0
INSERT
  5
186
330
17
100
AcDbEntity
  8
TREES
100
AcDbBlockReference
  2
TREE_PLAN
 10
368.0
 20
1688.0
 30
0.0
  0
INSERT
  5
188
330
17
100
AcDbEntity
  8
TREES
100
AcDbBlockReference
  2
TREE_PLAN
 10
368.0
 20
1700.0
 30
0.0
  0
INSERT
  5
18A
330
17
100
AcDbEntity
  8
TREES
100
AcDbBlockReference
  2
TREE_PLAN
 10
368.0
 20
1712.0
 30
0.0
  0
INSERT
  5
18C
330
17
100
AcDbEntity
  8
TREES
100
AcDbBlockReference
  2
TREE_PLAN
 10
1582.0
 20
1688.0
 30
0.0
  0
INSERT
  5
18E
330
17
100
AcDbEntity
  8
TREES
100
AcDbBlockReference
  2
TREE_PLAN
 10
1582.0
 20
1700.0
 30
0.0
  0
INSERT
  5
190
330
17
100
AcDbEntity
  8
TREES
100
AcDbBlockReference
  2
TREE_PLAN
 10
1582.0
 20
1712.0
 30
0.0
  0
INSERT
  5
192
330
17
100
AcDbEntity
  8
TREES
100
AcDbBlockReference
  2
TREE_PLAN
 10
1594.0
 20
1688.0
 30
0.0
  0
INSERT
  5
194
330
17
100
AcDbEntity
  8
TREES
100
AcDbBlockReference
  2
TREE_PLAN
 10
1594.0
 20
1700.0
 30
0.0
  0
INSERT
  5
196
330
17
100
AcDbEntity
  8
TREES
100
AcDbBlockReference
  2
TREE_PLAN
 10
1594.0
 20
1712.0
 30
0.0
  0
INSERT
  5
198
330
17
100
AcDbEntity
  8
TREES
100
AcDbBlockReference
  2
TREE_PLAN
 10
1606.0
 20
1688.0
 30
0.0
  0
INSERT
  5
19A
330
17
100
AcDbEntity
  8
TREES
100
AcDbBlockReference
  2
TREE_PLAN
 10
1606.0
 20
1700.0
 30
0.0
  0
INSERT
  5
19C
330
17
100
AcDbEntity
  8
TREES
100
AcDbBlockReference
  2
TREE_PLAN
 10
1606.0
 20
1712.0
 30
0.0
  0
INSERT
  5
19E
330
17
100
AcDbEntity
  8
TREES
100
AcDbBlockReference
  2
TREE_PLAN
 10
1618.0
 20
1688.0
 30
0.0
  0
INSERT
  5
1A0
330
17
100
AcDbEntity
  8
TREES
100
AcDbBlockReference
  2
TREE_PLAN
 10
1618.0
 20
1700.0
 30
0.0
  0
INSERT
  5
1A2
330
17
100
AcDbEntity
  8
TREES
100
AcDbBlockReference
  2
TREE_PLAN
 10
1618.0
 20
1712.0
 30
0.0
  0
INSERT
  5
1A4
330
17
100
AcDbEntity
  8
TREES
100
AcDbBlockReference
  2
TREE_PLAN
 10
332.0
 20
538.0
 30
0.0
  0
INSERT
  5
1A6
330
17
100
AcDbEntity
  8
TREES
100
AcDbBlockReference
  2
TREE_PLAN
 10
332.0
 20
550.0
 30
0.0
  0
INSERT
  5
1A8
330
17
100
AcDbEntity
  8
TREES
100
AcDbBlockReference
  2
TREE_PLAN
 10
332.0
 20
562.0
 30
0.0
  0
INSERT
  5
1AA
330
17
100
AcDbEntity
  8
TREES
100
AcDbBlockReference
  2
TREE_PLAN
 10
344.0
 20
538.0
 30
0.0
  0
INSERT
  5
1AC
330
17
100
AcDbEntity
  8
TREES
100
AcDbBlockReference
  2
TREE_PLAN
 10
344.0
 20
550.0
 30
0.0
  0
INSERT
  5
1AE
330
17
100
AcDbEntity
  8
TREES
100
AcDbBlockReference
  2
TREE_PLAN
 10
344.0
 20
562.0
 30
0.0
  0
INSERT
  5
1B0
330
17
100
AcDbEntity
  8
TREES
100
AcDbBlockReference
  2
TREE_PLAN
 10
356.0
 20
538.0
 30
0.0
  0
INSERT
  5
1B2
330
17
100
AcDbEntity
  8
TREES
100
AcDbBlockReference
  2
TREE_PLAN
 10
356.0
 20
550.0
 30
0.0
  0
INSERT
  5
1B4
330
17
100
AcDbEntity
  8
TREES
100
AcDbBlockReference
  2
TREE_PLAN
 10
356.0
 20
562.0
 30
0.0
  0
INSERT
  5
1B6
330
17
100
AcDbEntity
  8
TREES
100
AcDbBlockReference
  2
TREE_PLAN
 10
368.0
 20
538.0
 30
0.0
  0
INSERT
  5
1B8
330
17
100
AcDbEntity
  8
TREES
100
AcDbBlockReference
  2
TREE_PLAN
 10
368.0
 20
550.0
 30
0.0
  0
INSERT
  5
1BA
330
17
100
AcDbEntity
  8
TREES
100
AcDbBlockReference
  2
TREE_PLAN
 10
368.0
 20
562.0
 30
0.0
  0
INSERT
  5
1BC
330
17
100
AcDbEntity
  8
TREES
100
AcDbBlockReference
  2
TREE_PLAN
 10
1682.0
 20
438.0
 30
0.0
  0
INSERT
  5
1BE
330
17
100
AcDbEntity
  8
TREES
100
AcDbBlockReference
  2
TREE_PLAN
 10
1682.0
 20
450.0
 30
0.0
  0
INSERT
  5
1C0
330
17
100
AcDbEntity
  8
TREES
100
AcDbBlockReference
  2
TREE_PLAN
 10
1682.0
 20
462.0
 30
0.0
  0
INSERT
  5
1C2
330
17
100
AcDbEntity
  8
TREES
100
AcDbBlockReference
  2
TREE_PLAN
 10
1694.0
 20
438.0
 30
0.0
  0
INSERT
  5
1C4
330
17
100
AcDbEntity
  8
TREES
100
AcDbBlockReference
  2
TREE_PLAN
 10
1694.0
 20
450.0
 30
0.0
  0
INSERT
  5
1C6
330
17
100
AcDbEntity
  8
TREES
100
AcDbBlockReference
  2
TREE_PLAN
 10
1694.0
 20
462.0
 30
0.0
  0
INSERT
  5
1C8
330
17
100
AcDbEntity
  8
TREES
100
AcDbBlockReference
  2
TREE_PLAN
 10
1706.0
 20
438.0
 30
0.0
  0
INSERT
  5
1CA
330
17
100
AcDbEntity
  8
TREES
100
AcDbBlockReference
  2
TREE_PLAN
 10
1706.0
 20
450.0
 30
0.0
  0
INSERT
  5
1CC
330
17
100
AcDbEntity
  8
TREES
100
AcDbBlockReference
  2
TREE_PLAN
 10
1706.0
 20
462.0
 30
0.0
  0
INSERT
  5
1CE
330
17
100
AcDbEntity
  8
TREES
100
AcDbBlockReference
  2
TREE_PLAN
 10
1718.0
 20
438.0
 30
0.0
  0
INSERT
  5
1D0
330
17
100
AcDbEntity
  8
TREES
100
AcDbBlockReference
  2
TREE_PLAN
 10
1718.0
 20
450.0
 30
0.0
  0
INSERT
  5
1D2
330
17
100
AcDbEntity
  8
TREES
100
AcDbBlockReference
  2
TREE_PLAN
 10
1718.0
 20
462.0
 30
0.0
  0
INSERT
  5
1D4
330
17
100
AcDbEntity
  8
TREES
100
AcDbBlockReference
  2
TREE_PLAN
 10
882.0
 20
1788.0
 30
0.0
  0
INSERT
  5
1D6
330
17
100
AcDbEntity
  8
TREES
100
AcDbBlockReference
  2
TREE_PLAN
 10
882.0
 20
1800.0
 30
0.0
  0
INSERT
  5
1D8
330
17
100
AcDbEntity
  8
TREES
100
AcDbBlockReference
  2
TREE_PLAN
 10
882.0
 20
1812.0
 30
0.0
  0
INSERT
  5
1DA
330
17
100
AcDbEntity
  8
TREES
100
AcDbBlockReference
  2
TREE_PLAN
 10
894.0
 20
1788.0
 30
0.0
  0
INSERT
  5
1DC
330
17
100
AcDbEntity
  8
TREES
100
AcDbBlockReference
  2
TREE_PLAN
 10
894.0
 20
1800.0
 30
0.0
  0
INSERT
  5
1DE
330
17
100
AcDbEntity
  8
TREES
100
AcDbBlockReference
  2
TREE_PLAN
 10
894.0
 20
1812.0
 30
0.0
  0
INSERT
  5
1E0
330
17
100
AcDbEntity
  8
TREES
100
AcDbBlockReference
  2
TREE_PLAN
 10
906.0
 20
1788.0
 30
0.0
  0
INSERT
  5
1E2
330
17
100
AcDbEntity
  8
TREES
100
AcDbBlockReference
  2
TREE_PLAN
 10
906.0
 20
1800.0
 30
0.0
  0
INSERT
  5
1E4
330
17
100
AcDbEntity
  8
TREES
100
AcDbBlockReference
  2
TREE_PLAN
 10
906.0
 20
1812.0
 30
0.0
  0
INSERT
  5
1E6
330
17
100
AcDbEntity
  8
TREES
100
AcDbBlockReference
  2
TREE_PLAN
 10
918.0
 20
1788.0
 30
0.0
  0
INSERT
  5
1E8
330
17
100
AcDbEntity
  8
TREES
100
AcDbBlockReference
  2
TREE_PLAN
 10
918.0
 20
1800.0
 30
0.0
  0
INSERT
  5
1EA
330
17
100
AcDbEntity
  8
TREES
100
AcDbBlockReference
  2
TREE_PLAN
 10
918.0
 20
1812.0
 30
0.0
  0
INSERT
  5
1EC
330
17
100
AcDbEntity
  8
TREES
100
AcDbBlockReference
  2
TREE_SMALL
 10
250.0
 20
1010.0
 30
0.0
  0
INSERT
  5
1EE
330
17
100
AcDbEntity
  8
TREES
100
AcDbBlockReference
  2
TREE_SMALL
 10
250.0
 20
990.0
 30
0.0
  0
INSERT
  5
1F0
330
17
100
AcDbEntity
  8
TREES
100
AcDbBlockReference
  2
TREE_SMALL
 10
310.0
 20
1010.0
 30
0.0
  0
INSERT
  5
1F2
330
17
100
AcDbEntity
  8
TREES
100
AcDbBlockReference
  2
TREE_SMALL
 10
310.0
 20
990.0
 30
0.0
  0
INSERT
  5
1F4
330
17
100
AcDbEntity
  8
TREES
100
AcDbBlockReference
  2
TREE_SMALL
 10
370.0
 20
1010.0
 30
0.0
  0
INSERT
  5
1F6
330
17
100
AcDbEntity
  8
TREES
100
AcDbBlockReference
  2
TREE_SMALL
 10
370.0
 20
990.0
 30
0.0
  0
INSERT
  5
1F8
330
17
100
AcDbEntity
  8
TREES
100
AcDbBlockReference
  2
TREE_SMALL
 10
430.0
 20
1010.0
 30
0.0
  0
INSERT
  5
1FA
330
17
100
AcDbEntity
  8
TREES
100
AcDbBlockReference
  2
TREE_SMALL
 10
430.0
 20
990.0
 30
0.0
  0
INSERT
  5
1FC
330
17
100
AcDbEntity
  8
TREES
100
AcDbBlockReference
  2
TREE_SMALL
 10
490.0
 20
1010.0
 30
0.0
  0
INSERT
  5
1FE
330
17
100
AcDbEntity
  8
TREES
100
AcDbBlockReference
  2
TREE_SMALL
 10
490.0
 20
990.0
 30
0.0
  0
INSERT
  5
200
330
17
100
AcDbEntity
  8
TREES
100
AcDbBlockReference
  2
TREE_SMALL
 10
550.0
 20
1010.0
 30
0.0
  0
INSERT
  5
202
330
17
100
AcDbEntity
  8
TREES
100
AcDbBlockReference
  2
TREE_SMALL
 10
550.0
 20
990.0
 30
0.0
  0
INSERT
  5
204
330
17
100
AcDbEntity
  8
TREES
100
AcDbBlockReference
  2
TREE_SMALL
 10
610.0
 20
1010.0
 30
0.0
  0
INSERT
  5
206
330
17
100
AcDbEntity
  8
TREES
100
AcDbBlockReference
  2
TREE_SMALL
 10
610.0
 20
990.0
 30
0.0
  0
INSERT
  5
208
330
17
100
AcDbEntity
  8
TREES
100
AcDbBlockReference
  2
TREE_SMALL
 10
670.0
 20
1010.0
 30
0.0
  0
INSERT
  5
20A
330
17
100
AcDbEntity
  8
TREES
100
AcDbBlockReference
  2
TREE_SMALL
 10
670.0
 20
990.0
 30
0.0
  0
INSERT
  5
20C
330
17
100
AcDbEntity
  8
TREES
100
AcDbBlockReference
  2
TREE_SMALL
 10
730.0
 20
1010.0
 30
0.0
  0
INSERT
  5
20E
330
17
100
AcDbEntity
  8
TREES
100
AcDbBlockReference
  2
TREE_SMALL
 10
730.0
 20
990.0
 30
0.0
  0
INSERT
  5
210
330
17
100
AcDbEntity
  8
TREES
100
AcDbBlockReference
  2
TREE_SMALL
 10
790.0
 20
1010.0
 30
0.0
  0
INSERT
  5
212
330
17
100
AcDbEntity
  8
TREES
100
AcDbBlockReference
  2
TREE_SMALL
 10
790.0
 20
990.0
 30
0.0
  0
INSERT
  5
214
330
17
100
AcDbEntity
  8
TREES
100
AcDbBlockReference
  2
TREE_SMALL
 10
850.0
 20
1010.0
 30
0.0
  0
INSERT
  5
216
330
17
100
AcDbEntity
  8
TREES
100
AcDbBlockReference
  2
TREE_SMALL
 10
850.0
 20
990.0
 30
0.0
  0
INSERT
  5
218
330
17
100
AcDbEntity
  8
TREES
100
AcDbBlockReference
  2
TREE_SMALL
 10
910.0
 20
1010.0
 30
0.0
  0
INSERT
  5
21A
330
17
100
AcDbEntity
  8
TREES
100
AcDbBlockReference
  2
TREE_SMALL
 10
910.0
 20
990.0
 30
0.0
  0
INSERT
  5
21C
330
17
100
AcDbEntity
  8
TREES
100
AcDbBlockReference
  2
TREE_SMALL
 10
970.0
 20
1010.0
 30
0.0
  0
INSERT
  5
21E
330
17
100
AcDbEntity
  8
TREES
100
AcDbBlockReference
  2
TREE_SMALL
 10
970.0
 20
990.0
 30
0.0
  0
INSERT
  5
220
330
17
100
AcDbEntity
  8
TREES
100
AcDbBlockReference
  2
TREE_SMALL
 10
1030.0
 20
1010.0
 30
0.0
  0
INSERT
  5
222
330
17
100
AcDbEntity
  8
TREES
100
AcDbBlockReference
  2
TREE_SMALL
 10
1030.0
 20
990.0
 30
0.0
  0
INSERT
  5
224
330
17
100
AcDbEntity
  8
TREES
100
AcDbBlockReference
  2
TREE_SMALL
 10
1090.0
 20
1010.0
 30
0.0
  0
INSERT
  5
226
330
17
100
AcDbEntity
  8
TREES
100
AcDbBlockReference
  2
TREE_SMALL
 10
1090.0
 20
990.0
 30
0.0
  0
INSERT
  5
228
330
17
100
AcDbEntity
  8
TREES
100
AcDbBlockReference
  2
TREE_SMALL
 10
1150.0
 20
1010.0
 30
0.0
  0
INSERT
  5
22A
330
17
100
AcDbEntity
  8
TREES
100
AcDbBlockReference
  2
TREE_SMALL
 10
1150.0
 20
990.0
 30
0.0
  0
INSERT
  5
22C
330
17
100
AcDbEntity
  8
TREES
100
AcDbBlockReference
  2
TREE_SMALL
 10
1210.0
 20
1010.0
 30
0.0
  0
INSERT
  5
22E
330
17
100
AcDbEntity
  8
TREES
100
AcDbBlockReference
  2
TREE_SMALL
 10
1210.0
 20
990.0
 30
0.0
  0
INSERT
  5
230
330
17
100
AcDbEntity
  8
TREES
100
AcDbBlockReference
  2
TREE_SMALL
 10
1270.0
 20
1010.0
 30
0.0
  0
INSERT
  5
232
330
17
100
AcDbEntity
  8
TREES
100
AcDbBlockReference
  2
TREE_SMALL
 10
1270.0
 20
990.0
 30
0.0
  0
INSERT
  5
234
330
17
100
AcDbEntity
  8
TREES
100
AcDbBlockReference
  2
TREE_SMALL
 10
1330.0
 20
1010.0
 30
0.0
  0
INSERT
  5
236
330
17
100
AcDbEntity
  8
TREES
100
AcDbBlockReference
  2
TREE_SMALL
 10
1330.0
 20
990.0
 30
0.0
  0
INSERT
  5
238
330
17
100
AcDbEntity
  8
TREES
100
AcDbBlockReference
  2
TREE_SMALL
 10
1390.0
 20
1010.0
 30
0.0
  0
INSERT
  5
23A
330
17
100
AcDbEntity
  8
TREES
100
AcDbBlockReference
  2
TREE_SMALL
 10
1390.0
 20
990.0
 30
0.0
  0
INSERT
  5
23C
330
17
100
AcDbEntity
  8
TREES
100
AcDbBlockReference
  2
TREE_SMALL
 10
1450.0
 20
1010.0
 30
0.0
  0
INSERT
  5
23E
330
17
100
AcDbEntity
  8
TREES
100
AcDbBlockReference
  2
TREE_SMALL
 10
1450.0
 20
990.0
 30
0.0
  0
INSERT
  5
240
330
17
100
AcDbEntity
  8
TREES
100
AcDbBlockReference
  2
TREE_SMALL
 10
1510.0
 20
1010.0
 30
0.0
  0
INSERT
  5
242
330
17
100
AcDbEntity
  8
TREES
100
AcDbBlockReference
  2
TREE_SMALL
 10
1510.0
 20
990.0
 30
0.0
  0
INSERT
  5
244
330
17
100
AcDbEntity
  8
TREES
100
AcDbBlockReference
  2
TREE_SMALL
 10
1570.0
 20
1010.0
 30
0.0
  0
INSERT
  5
246
330
17
100
AcDbEntity
  8
TREES
100
AcDbBlockReference
  2
TREE_SMALL
 10
1570.0
 20
990.0
 30
0.0
  0
INSERT
  5
248
330
17
100
AcDbEntity
  8
TREES
100
AcDbBlockReference
  2
TREE_SMALL
 10
1630.0
 20
1010.0
 30
0.0
  0
INSERT
  5
24A
330
17
100
AcDbEntity
  8
TREES
100
AcDbBlockReference
  2
TREE_SMALL
 10
1630.0
 20
990.0
 30
0.0
  0
INSERT
  5
24C
330
17
100
AcDbEntity
  8
TREES
100
AcDbBlockReference
  2
TREE_SMALL
 10
1690.0
 20
1010.0
 30
0.0
  0
INSERT
  5
24E
330
17
100
AcDbEntity
  8
TREES
100
AcDbBlockReference
  2
TREE_SMALL
 10
1690.0
 20
990.0
 30
0.0
  0
INSERT
  5
250
330
17
100
AcDbEntity
  8
TREES
100
AcDbBlockReference
  2
TREE_SMALL
 10
1750.0
 20
1010.0
 30
0.0
  0
INSERT
  5
252
330
17
100
AcDbEntity
  8
TREES
100
AcDbBlockReference
  2
TREE_SMALL
 10
1750.0
 20
990.0
 30
0.0
  0
INSERT
  5
254
330
17
100
AcDbEntity
  8
TREES
100
AcDbBlockReference
  2
TREE_SMALL
 10
1810.0
 20
1010.0
 30
0.0
  0
INSERT
  5
256
330
17
100
AcDbEntity
  8
TREES
100
AcDbBlockReference
  2
TREE_SMALL
 10
1810.0
 20
990.0
 30
0.0
  0
INSERT
  5
258
330
17
100
AcDbEntity
  8
TREES
100
AcDbBlockReference
  2
TREE_SMALL
 10
1870.0
 20
1010.0
 30
0.0
  0
INSERT
  5
25A
330
17
100
AcDbEntity
  8
TREES
100
AcDbBlockReference
  2
TREE_SMALL
 10
1870.0
 20
990.0
 30
0.0
  0
INSERT
  5
25C
330
17
100
AcDbEntity
  8
TREES
100
AcDbBlockReference
  2
TREE_SMALL
 10
1930.0
 20
1010.0
 30
0.0
  0
INSERT
  5
25E
330
17
100
AcDbEntity
  8
TREES
100
AcDbBlockReference
  2
TREE_SMALL
 10
1930.0
 20
990.0
 30
0.0
  0
INSERT
  5
260
330
17
100
AcDbEntity
  8
TREES
100
AcDbBlockReference
  2
TREE_SMALL
 10
1990.0
 20
1010.0
 30
0.0
  0
INSERT
  5
262
330
17
100
AcDbEntity
  8
TREES
100
AcDbBlockReference
  2
TREE_SMALL
 10
1990.0
 20
990.0
 30
0.0
  0
INSERT
  5
264
330
17
100
AcDbEntity
  8
TREES
100
AcDbBlockReference
  2
TREE_SMALL
 10
2050.0
 20
1010.0
 30
0.0
  0
INSERT
  5
266
330
17
100
AcDbEntity
  8
TREES
100
AcDbBlockReference
  2
TREE_SMALL
 10
2050.0
 20
990.0
 30
0.0
  0
INSERT
  5
268
330
17
100
AcDbEntity
  8
TREES
100
AcDbBlockReference
  2
TREE_SMALL
 10
1110.0
 20
200.0
 30
0.0
  0
INSERT
  5
26A
330
17
100
AcDbEntity
  8
TREES
100
AcDbBlockReference
  2
TREE_SMALL
 10
1090.0
 20
200.0
 30
0.0
  0
INSERT
  5
26C
330
17
100
AcDbEntity
  8
TREES
100
AcDbBlockReference
  2
TREE_SMALL
 10
1110.0
 20
260.0
 30
0.0
  0
INSERT
  5
26E
330
17
100
AcDbEntity
  8
TREES
100
AcDbBlockReference
  2
TREE_SMALL
 10
1090.0
 20
260.0
 30
0.0
  0
INSERT
  5
270
330
17
100
AcDbEntity
  8
TREES
100
AcDbBlockReference
  2
TREE_SMALL
 10
1110.0
 20
320.0
 30
0.0
  0
INSERT
  5
272
330
17
100
AcDbEntity
  8
TREES
100
AcDbBlockReference
  2
TREE_SMALL
 10
1090.0
 20
320.0
 30
0.0
  0
INSERT
  5
274
330
17
100
AcDbEntity
  8
TREES
100
AcDbBlockReference
  2
TREE_SMALL
 10
1110.0
 20
380.0
 30
0.0
  0
INSERT
  5
276
330
17
100
AcDbEntity
  8
TREES
100
AcDbBlockReference
  2
TREE_SMALL
 10
1090.0
 20
380.0
 30
0.0
  0
INSERT
  5
278
330
17
100
AcDbEntity
  8
TREES
100
AcDbBlockReference
  2
TREE_SMALL
 10
1110.0
 20
440.0
 30
0.0
  0
INSERT
  5
27A
330
17
100
AcDbEntity
  8
TREES
100
AcDbBlockReference
  2
TREE_SMALL
 10
1090.0
 20
440.0
 30
0.0
  0
INSERT
  5
27C
330
17
100
AcDbEntity
  8
TREES
100
AcDbBlockReference
  2
TREE_SMALL
 10
1110.0
 20
500.0
 30
0.0
  0
INSERT
  5
27E
330
17
100
AcDbEntity
  8
TREES
100
AcDbBlockReference
  2
TREE_SMALL
 10
1090.0
 20
500.0
 30
0.0
  0
INSERT
  5
280
330
17
100
AcDbEntity
  8
TREES
100
AcDbBlockReference
  2
TREE_SMALL
 10
1110.0
 20
560.0
 30
0.0
  0
INSERT
  5
282
330
17
100
AcDbEntity
  8
TREES
100
AcDbBlockReference
  2
TREE_SMALL
 10
1090.0
 20
560.0
 30
0.0
  0
INSERT
  5
284
330
17
100
AcDbEntity
  8
TREES
100
AcDbBlockReference
  2
TREE_SMALL
 10
1110.0
 20
620.0
 30
0.0
  0
INSERT
  5
286
330
17
100
AcDbEntity
  8
TREES
100
AcDbBlockReference
  2
TREE_SMALL
 10
1090.0
 20
620.0
 30
0.0
  0
INSERT
  5
288
330
17
100
AcDbEntity
  8
TREES
100
AcDbBlockReference
  2
TREE_SMALL
 10
1110.0
 20
680.0
 30
0.0
  0
INSERT
  5
28A
330
17
100
AcDbEntity
  8
TREES
100
AcDbBlockReference
  2
TREE_SMALL
 10
1090.0
 20
680.0
 30
0.0
  0
INSERT
  5
28C
330
17
100
AcDbEntity
  8
TREES
100
AcDbBlockReference
  2
TREE_SMALL
 10
1110.0
 20
740.0
 30
0.0
  0
INSERT
  5
28E
330
17
100
AcDbEntity
  8
TREES
100
AcDbBlockReference
  2
TREE_SMALL
 10
1090.0
 20
740.0
 30
0.0
  0
INSERT
  5
290
330
17
100
AcDbEntity
  8
TREES
100
AcDbBlockReference
  2
TREE_SMALL
 10
1110.0
 20
800.0
 30
0.0
  0
INSERT
  5
292
330
17
100
AcDbEntity
  8
TREES
100
AcDbBlockReference
  2
TREE_SMALL
 10
1090.0
 20
800.0
 30
0.0
  0
INSERT
  5
294
330
17
100
AcDbEntity
  8
TREES
100
AcDbBlockReference
  2
TREE_SMALL
 10
1110.0
 20
860.0
 30
0.0
  0
INSERT
  5
296
330
17
100
AcDbEntity
  8
TREES
100
AcDbBlockReference
  2
TREE_SMALL
 10
1090.0
 20
860.0
 30
0.0
  0
INSERT
  5
298
330
17
100
AcDbEntity
  8
TREES
100
AcDbBlockReference
  2
TREE_SMALL
 10
1110.0
 20
920.0
 30
0.0
  0
INSERT
  5
29A
330
17
100
AcDbEntity
  8
TREES
100
AcDbBlockReference
  2
TREE_SMALL
 10
1090.0
 20
920.0
 30
0.0
  0
INSERT
  5
29C
330
17
100
AcDbEntity
  8
TREES
100
AcDbBlockReference
  2
TREE_SMALL
 10
1110.0
 20
980.0
 30
0.0
  0
INSERT
  5
29E
330
17
100
AcDbEntity
  8
TREES
100
AcDbBlockReference
  2
TREE_SMALL
 10
1090.0
 20
980.0
 30
0.0
  0
INSERT
  5
2A0
330
17
100
AcDbEntity
  8
TREES
100
AcDbBlockReference
  2
TREE_SMALL
 10
1110.0
 20
1040.0
 30
0.0
  0
INSERT
  5
2A2
330
17
100
AcDbEntity
  8
TREES
100
AcDbBlockReference
  2
TREE_SMALL
 10
1090.0
 20
1040.0
 30
0.0
  0
INSERT
  5
2A4
330
17
100
AcDbEntity
  8
TREES
100
AcDbBlockReference
  2
TREE_SMALL
 10
1110.0
 20
1100.0
 30
0.0
  0
INSERT
  5
2A6
330
17
100
AcDbEntity
  8
TREES
100
AcDbBlockReference
  2
TREE_SMALL
 10
1090.0
 20
1100.0
 30
0.0
  0
INSERT
  5
2A8
330
17
100
AcDbEntity
  8
TREES
100
AcDbBlockReference
  2
TREE_SMALL
 10
1110.0
 20
1160.0
 30
0.0
  0
INSERT
  5
2AA
330
17
100
AcDbEntity
  8
TREES
100
AcDbBlockReference
  2
TREE_SMALL
 10
1090.0
 20
1160.0
 30
0.0
  0
INSERT
  5
2AC
330
17
100
AcDbEntity
  8
TREES
100
AcDbBlockReference
  2
TREE_SMALL
 10
1110.0
 20
1220.0
 30
0.0
  0
INSERT
  5
2AE
330
17
100
AcDbEntity
  8
TREES
100
AcDbBlockReference
  2
TREE_SMALL
 10
1090.0
 20
1220.0
 30
0.0
  0
INSERT
  5
2B0
330
17
100
AcDbEntity
  8
TREES
100
AcDbBlockReference
  2
TREE_SMALL
 10
1110.0
 20
1280.0
 30
0.0
  0
INSERT
  5
2B2
330
17
100
AcDbEntity
  8
TREES
100
AcDbBlockReference
  2
TREE_SMALL
 10
1090.0
 20
1280.0
 30
0.0
  0
INSERT
  5
2B4
330
17
100
AcDbEntity
  8
TREES
100
AcDbBlockReference
  2
TREE_SMALL
 10
1110.0
 20
1340.0
 30
0.0
  0
INSERT
  5
2B6
330
17
100
AcDbEntity
  8
TREES
100
AcDbBlockReference
  2
TREE_SMALL
 10
1090.0
 20
1340.0
 30
0.0
  0
INSERT
  5
2B8
330
17
100
AcDbEntity
  8
TREES
100
AcDbBlockReference
  2
TREE_SMALL
 10
1110.0
 20
1400.0
 30
0.0
  0
INSERT
  5
2BA
330
17
100
AcDbEntity
  8
TREES
100
AcDbBlockReference
  2
TREE_SMALL
 10
1090.0
 20
1400.0
 30
0.0
  0
INSERT
  5
2BC
330
17
100
AcDbEntity
  8
TREES
100
AcDbBlockReference
  2
TREE_SMALL
 10
1110.0
 20
1460.0
 30
0.0
  0
INSERT
  5
2BE
330
17
100
AcDbEntity
  8
TREES
100
AcDbBlockReference
  2
TREE_SMALL
 10
1090.0
 20
1460.0
 30
0.0
  0
INSERT
  5
2C0
330
17
100
AcDbEntity
  8
TREES
100
AcDbBlockReference
  2
TREE_SMALL
 10
1110.0
 20
1520.0
 30
0.0
  0
INSERT
  5
2C2
330
17
100
AcDbEntity
  8
TREES
100
AcDbBlockReference
  2
TREE_SMALL
 10
1090.0
 20
1520.0
 30
0.0
  0
INSERT
  5
2C4
330
17
100
AcDbEntity
  8
TREES
100
AcDbBlockReference
  2
TREE_SMALL
 10
1110.0
 20
1580.0
 30
0.0
  0
INSERT
  5
2C6
330
17
100
AcDbEntity
  8
TREES
100
AcDbBlockReference
  2
TREE_SMALL
 10
1090.0
 20
1580.0
 30
0.0
  0
INSERT
  5
2C8
330
17
100
AcDbEntity
  8
TREES
100
AcDbBlockReference
  2
TREE_SMALL
 10
1110.0
 20
1640.0
 30
0.0
  0
INSERT
  5
2CA
330
17
100
AcDbEntity
  8
TREES
100
AcDbBlockReference
  2
TREE_SMALL
 10
1090.0
 20
1640.0
 30
0.0
  0
INSERT
  5
2CC
330
17
100
AcDbEntity
  8
TREES
100
AcDbBlockReference
  2
TREE_SMALL
 10
1110.0
 20
1700.0
 30
0.0
  0
INSERT
  5
2CE
330
17
100
AcDbEntity
  8
TREES
100
AcDbBlockReference
  2
TREE_SMALL
 10
1090.0
 20
1700.0
 30
0.0
  0
INSERT
  5
2D0
330
17
100
AcDbEntity
  8
TREES
100
AcDbBlockReference
  2
TREE_SMALL
 10
1110.0
 20
1760.0
 30
0.0
  0
INSERT
  5
2D2
330
17
100
AcDbEntity
  8
TREES
100
AcDbBlockReference
  2
TREE_SMALL
 10
1090.0
 20
1760.0
 30
0.0
  0
INSERT
  5
2D4
330
17
100
AcDbEntity
  8
TREES
100
AcDbBlockReference
  2
TREE_SMALL
 10
1110.0
 20
1820.0
 30
0.0
  0
INSERT
  5
2D6
330
17
100
AcDbEntity
  8
TREES
100
AcDbBlockReference
  2
TREE_SMALL
 10
1090.0
 20
1820.0
 30
0.0
  0
INSERT
  5
2D8
330
17
100
AcDbEntity
  8
TREES
100
AcDbBlockReference
  2
TREE_SMALL
 10
1110.0
 20
1880.0
 30
0.0
  0
INSERT
  5
2DA
330
17
100
AcDbEntity
  8
TREES
100
AcDbBlockReference
  2
TREE_SMALL
 10
1090.0
 20
1880.0
 30
0.0
  0
INSERT
  5
2DC
330
17
100
AcDbEntity
  8
TREES
100
AcDbBlockReference
  2
TREE_SMALL
 10
1110.0
 20
1940.0
 30
0.0
  0
INSERT
  5
2DE
330
17
100
AcDbEntity
  8
TREES
100
AcDbBlockReference
  2
TREE_SMALL
 10
1090.0
 20
1940.0
 30
0.0
  0
LWPOLYLINE
  5
2E0
330
17
100
AcDbEntity
  8
BUILDINGS
100
AcDbPolyline
 90
4
 70
1
 10
850.0
 20
1800.0
 10
1050.0
 20
1800.0
 10
1050.0
 20
1920.0
 10
850.0
 20
1920.0
  0
HATCH
  5
2E1
330
17
100
AcDbEntity
  8
HATCH_EDUCATION
100
AcDbHatch
 10
0.0
 20
0.0
 30
0.0
210
0.0
220
0.0
230
1.0
  2
SOLID
 70
1
 71
0
 91
1
 92
3
 72
0
 73
1
 93
4
 10
850.0
 20
1800.0
 10
1050.0
 20
1800.0
 10
1050.0
 20
1920.0
 10
850.0
 20
1920.0
 97
0
 75
0
 76
1
 98
0
  0
TEXT
  5
2E2
330
17
100
AcDbEntity
  8
TEXT_LABEL
100
AcDbText
 10
950.0
 20
1860.0
 30
0.0
 40
8.0
  1
SECONDARY SCHOOL
  7
LABEL
 72
1
 11
950.0
 21
1860.0
 31
0.0
100
AcDbText
 73
2
  0
LWPOLYLINE
  5
2E3
330
17
100
AcDbEntity
  8
BUILDINGS
100
AcDbPolyline
 90
4
 70
1
 10
300.0
 20
750.0
 10
380.0
 20
750.0
 10
380.0
 20
810.0
 10
300.0
 20
810.0
  0
HATCH
  5
2E4
330
17
100
AcDbEntity
  8
HATCH_EDUCATION
100
AcDbHatch
 10
0.0
 20
0.0
 30
0.0
210
0.0
220
0.0
230
1.0
  2
SOLID
 70
1
 71
0
 91
1
 92
3
 72
0
 73
1
 93
4
 10
300.0
 20
750.0
 10
380.0
 20
750.0
 10
380.0
 20
810.0
 10
300.0
 20
810.0
 97
0
 75
0
 76
1
 98
0
  0
TEXT
  5
2E5
330
17
100
AcDbEntity
  8
TEXT_NOTE
100
AcDbText
 10
340.0
 20
780.0
 30
0.0
 40
6.0
  1
PRIMARY
  7
NOTE
 72
1
 11
340.0
 21
780.0
 31
0.0
100
AcDbText
 73
2
  0
LWPOLYLINE
  5
2E6
330
17
100
AcDbEntity
  8
BUILDINGS
100
AcDbPolyline
 90
4
 70
1
 10
1500.0
 20
350.0
 10
1580.0
 20
350.0
 10
1580.0
 20
410.0
 10
1500.0
 20
410.0
  0
HATCH
  5
2E7
330
17
100
AcDbEntity
  8
HATCH_EDUCATION
100
AcDbHatch
 10
0.0
 20
0.0
 30
0.0
210
0.0
220
0.0
230
1.0
  2
SOLID
 70
1
 71
0
 91
1
 92
3
 72
0
 73
1
 93
4
 10
1500.0
 20
350.0
 10
1580.0
 20
350.0
 10
1580.0
 20
410.0
 10
1500.0
 20
410.0
 97
0
 75
0
 76
1
 98
0
  0
TEXT
  5
2E8
330
17
100
AcDbEntity
  8
TEXT_NOTE
100
AcDbText
 10
1540.0
 20
380.0
 30
0.0
 40
6.0
  1
PRIMARY
  7
NOTE
 72
1
 11
1540.0
 21
380.0
 31
0.0
100
AcDbText
 73
2
  0
LWPOLYLINE
  5
2E9
330
17
100
AcDbEntity
  8
BUILDINGS
100
AcDbPolyline
 90
4
 70
1
 10
700.0
 20
1500.0
 10
780.0
 20
1500.0
 10
780.0
 20
1560.0
 10
700.0
 20
1560.0
  0
HATCH
  5
2EA
330
17
100
AcDbEntity
  8
HATCH_EDUCATION
100
AcDbHatch
 10
0.0
 20
0.0
 30
0.0
210
0.0
220
0.0
230
1.0
  2
SOLID
 70
1
 71
0
 91
1
 92
3
 72
0
 73
1
 93
4
 10
700.0
 20
1500.0
 10
780.0
 20
1500.0
 10
780.0
 20
1560.0
 10
700.0
 20
1560.0
 97
0
 75
0
 76
1
 98
0
  0
TEXT
  5
2EB
330
17
100
AcDbEntity
  8
TEXT_NOTE
100
AcDbText
 10
740.0
 20
1530.0
 30
0.0
 40
6.0
  1
PRIMARY
  7
NOTE
 72
1
 11
740.0
 21
1530.0
 31
0.0
100
AcDbText
 73
2
  0
LWPOLYLINE
  5
2EC
330
17
100
AcDbEntity
  8
BUILDINGS
100
AcDbPolyline
 90
4
 70
1
 10
1600.0
 20
1500.0
 10
1680.0
 20
1500.0
 10
1680.0
 20
1560.0
 10
1600.0
 20
1560.0
  0
HATCH
  5
2ED
330
17
100
AcDbEntity
  8
HATCH_EDUCATION
100
AcDbHatch
 10
0.0
 20
0.0
 30
0.0
210
0.0
220
0.0
230
1.0
  2
SOLID
 70
1
 71
0
 91
1
 92
3
 72
0
 73
1
 93
4
 10
1600.0
 20
1500.0
 10
1680.0
 20
1500.0
 10
1680.0
 20
1560.0
 10
1600.0
 20
1560.0
 97
0
 75
0
 76
1
 98
0
  0
TEXT
  5
2EE
330
17
100
AcDbEntity
  8
TEXT_NOTE
100
AcDbText
 10
1640.0
 20
1530.0
 30
0.0
 40
6.0
  1
PRIMARY
  7
NOTE
 72
1
 11
1640.0
 21
1530.0
 31
0.0
100
AcDbText
 73
2
  0
LWPOLYLINE
  5
2EF
330
17
100
AcDbEntity
  8
BUILDINGS
100
AcDbPolyline
 90
4
 70
1
 10
400.0
 20
350.0
 10
480.0
 20
350.0
 10
480.0
 20
410.0
 10
400.0
 20
410.0
  0
HATCH
  5
2F0
330
17
100
AcDbEntity
  8
HATCH_EDUCATION
100
AcDbHatch
 10
0.0
 20
0.0
 30
0.0
210
0.0
220
0.0
230
1.0
  2
SOLID
 70
1
 71
0
 91
1
 92
3
 72
0
 73
1
 93
4
 10
400.0
 20
350.0
 10
480.0
 20
350.0
 10
480.0
 20
410.0
 10
400.0
 20
410.0
 97
0
 75
0
 76
1
 98
0
  0
TEXT
  5
2F1
330
17
100
AcDbEntity
  8
TEXT_NOTE
100
AcDbText
 10
440.0
 20
380.0
 30
0.0
 40
6.0
  1
PRIMARY
  7
NOTE
 72
1
 11
440.0
 21
380.0
 31
0.0
100
AcDbText
 73
2
  0
LWPOLYLINE
  5
2F2
330
17
100
AcDbEntity
  8
BUILDINGS
100
AcDbPolyline
 90
4
 70
1
 10
1350.0
 20
500.0
 10
1550.0
 20
500.0
 10
1550.0
 20
650.0
 10
1350.0
 20
650.0
  0
HATCH
  5
2F3
330
17
100
AcDbEntity
  8
HATCH_HEALTH
100
AcDbHatch
 10
0.0
 20
0.0
 30
0.0
210
0.0
220
0.0
230
1.0
  2
SOLID
 70
1
 71
0
 91
1
 92
3
 72
0
 73
1
 93
4
 10
1350.0
 20
500.0
 10
1550.0
 20
500.0
 10
1550.0
 20
650.0
 10
1350.0
 20
650.0
 97
0
 75
0
 76
1
 98
0
  0
TEXT
  5
2F4
330
17
100
AcDbEntity
  8
TEXT_LABEL
100
AcDbText
 10
1450.0
 20
580.0
 30
0.0
 40
10.0
  1
HOSPITAL
  7
LABEL
 72
1
 11
1450.0
 21
580.0
 31
0.0
100
AcDbText
 73
2
  0
TEXT
  5
2F5
330
17
100
AcDbEntity
  8
TEXT_NOTE
100
AcDbText
 10
1450.0
 20
550.0
 30
0.0
 40
6.0
  1
113 beds
  7
NOTE
 72
1
 11
1450.0
 21
550.0
 31
0.0
100
AcDbText
 73
2
  0
INSERT
  5
2F6
330
17
100
AcDbEntity
  8
HATCH_RELIGIOUS
100
AcDbBlockReference
  2
MOSQUE
 10
750.0
 20
1600.0
 30
0.0
  0
INSERT
  5
2F8
330
17
100
AcDbEntity
  8
HATCH_RELIGIOUS
100
AcDbBlockReference
  2
MOSQUE
 10
1300.0
 20
1000.0
 30
0.0
  0
INSERT
  5
2FA
330
17
100
AcDbEntity
  8
HATCH_RELIGIOUS
100
AcDbBlockReference
  2
MOSQUE
 10
500.0
 20
500.0
 30
0.0
  0
INSERT
  5
2FC
330
17
100
AcDbEntity
  8
HATCH_RELIGIOUS
100
AcDbBlockReference
  2
MOSQUE
 10
1700.0
 20
1100.0
 30
0.0
  0
INSERT
  5
2FE
330
17
100
AcDbEntity
  8
HATCH_RELIGIOUS
100
AcDbBlockReference
  2
MOSQUE
 10
900.0
 20
350.0
 30
0.0
  0
LINE
  5
300
330
17
100
AcDbEntity
  8
ROADS_PRIMARY
100
AcDbLine
 10
100.0
 20
980.0
 30
0.0
 11
2200.0
 21
980.0
 31
0.0
  0
LINE
  5
301
330
17
100
AcDbEntity
  8
ROADS_PRIMARY
100
AcDbLine
 10
1080.0
 20
100.0
 30
0.0
 11
1080.0
 21
2050.0
 31
0.0
  0
LINE
  5
302
330
17
100
AcDbEntity
  8
ROADS_PRIMARY
100
AcDbLine
 10
100.0
 20
1000.0
 30
0.0
 11
2200.0
 21
1000.0
 31
0.0
  0
LINE
  5
303
330
17
100
AcDbEntity
  8
ROADS_PRIMARY
100
AcDbLine
 10
1100.0
 20
100.0
 30
0.0
 11
1100.0
 21
2050.0
 31
0.0
  0
LINE
  5
304
330
17
100
AcDbEntity
  8
ROADS_PRIMARY
100
AcDbLine
 10
100.0
 20
1020.0
 30
0.0
 11
2200.0
 21
1020.0
 31
0.0
  0
LINE
  5
305
330
17
100
AcDbEntity
  8
ROADS_PRIMARY
100
AcDbLine
 10
1120.0
 20
100.0
 30
0.0
 11
1120.0
 21
2050.0
 31
0.0
  0
LINE
  5
306
330
17
100
AcDbEntity
  8
ROADS_CENTER
100
AcDbLine
 10
100.0
 20
1000.0
 30
0.0
 11
2200.0
 21
1000.0
 31
0.0
  0
LINE
  5
307
330
17
100
AcDbEntity
  8
ROADS_CENTER
100
AcDbLine
 10
1100.0
 20
100.0
 30
0.0
 11
1100.0
 21
2050.0
 31
0.0
  0
TEXT
  5
308
330
17
100
AcDbEntity
  8
TEXT_LABEL
100
AcDbText
 10
1700.0
 20
1040.0
 30
0.0
 40
8.0
  1
PRIMARY ARTERIAL 40m
  7
LABEL
 11
1700.0
 21
1040.0
 31
0.0
100
AcDbText
 73
2
  0
LINE
  5
309
330
17
100
AcDbEntity
  8
ROADS_SECONDARY
100
AcDbLine
 10
200.0
 20
487.0
 30
0.0
 11
2100.0
 21
487.0
 31
0.0
  0
LINE
  5
30A
330
17
100
AcDbEntity
  8
ROADS_SECONDARY
100
AcDbLine
 10
200.0
 20
500.0
 30
0.0
 11
2100.0
 21
500.0
 31
0.0
  0
LINE
  5
30B
330
17
100
AcDbEntity
  8
ROADS_SECONDARY
100
AcDbLine
 10
200.0
 20
513.0
 30
0.0
 11
2100.0
 21
513.0
 31
0.0
  0
LINE
  5
30C
330
17
100
AcDbEntity
  8
ROADS_SECONDARY
100
AcDbLine
 10
200.0
 20
1487.0
 30
0.0
 11
2100.0
 21
1487.0
 31
0.0
  0
LINE
  5
30D
330
17
100
AcDbEntity
  8
ROADS_SECONDARY
100
AcDbLine
 10
200.0
 20
1500.0
 30
0.0
 11
2100.0
 21
1500.0
 31
0.0
  0
LINE
  5
30E
330
17
100
AcDbEntity
  8
ROADS_SECONDARY
100
AcDbLine
 10
200.0
 20
1513.0
 30
0.0
 11
2100.0
 21
1513.0
 31
0.0
  0
LINE
  5
30F
330
17
100
AcDbEntity
  8
ROADS_SECONDARY
100
AcDbLine
 10
587.0
 20
150.0
 30
0.0
 11
587.0
 21
1950.0
 31
0.0
  0
LINE
  5
310
330
17
100
AcDbEntity
  8
ROADS_SECONDARY
100
AcDbLine
 10
600.0
 20
150.0
 30
0.0
 11
600.0
 21
1950.0
 31
0.0
  0
LINE
  5
311
330
17
100
AcDbEntity
  8
ROADS_SECONDARY
100
AcDbLine
 10
613.0
 20
150.0
 30
0.0
 11
613.0
 21
1950.0
 31
0.0
  0
LINE
  5
312
330
17
100
AcDbEntity
  8
ROADS_SECONDARY
100
AcDbLine
 10
1587.0
 20
150.0
 30
0.0
 11
1587.0
 21
1950.0
 31
0.0
  0
LINE
  5
313
330
17
100
AcDbEntity
  8
ROADS_SECONDARY
100
AcDbLine
 10
1600.0
 20
150.0
 30
0.0
 11
1600.0
 21
1950.0
 31
0.0
  0
LINE
  5
314
330
17
100
AcDbEntity
  8
ROADS_SECONDARY
100
AcDbLine
 10
1613.0
 20
150.0
 30
0.0
 11
1613.0
 21
1950.0
 31
0.0
  0
LINE
  5
315
330
17
100
AcDbEntity
  8
ROADS_LOCAL
100
AcDbLine
 10
200.0
 20
300.0
 30
0.0
 11
2100.0
 21
300.0
 31
0.0
  0
LINE
  5
316
330
17
100
AcDbEntity
  8
ROADS_LOCAL
100
AcDbLine
 10
200.0
 20
700.0
 30
0.0
 11
2100.0
 21
700.0
 31
0.0
  0
LINE
  5
317
330
17
100
AcDbEntity
  8
ROADS_LOCAL
100
AcDbLine
 10
200.0
 20
900.0
 30
0.0
 11
2100.0
 21
900.0
 31
0.0
  0
LINE
  5
318
330
17
100
AcDbEntity
  8
ROADS_LOCAL
100
AcDbLine
 10
200.0
 20
1100.0
 30
0.0
 11
2100.0
 21
1100.0
 31
0.0
  0
LINE
  5
319
330
17
100
AcDbEntity
  8
ROADS_LOCAL
100
AcDbLine
 10
200.0
 20
1300.0
 30
0.0
 11
2100.0
 21
1300.0
 31
0.0
  0
LINE
  5
31A
330
17
100
AcDbEntity
  8
ROADS_LOCAL
100
AcDbLine
 10
200.0
 20
1700.0
 30
0.0
 11
2100.0
 21
1700.0
 31
0.0
  0
LINE
  5
31B
330
17
100
AcDbEntity
  8
ROADS_LOCAL
100
AcDbLine
 10
200.0
 20
1900.0
 30
0.0
 11
2100.0
 21
1900.0
 31
0.0
  0
LINE
  5
31C
330
17
100
AcDbEntity
  8
ROADS_LOCAL
100
AcDbLine
 10
350.0
 20
150.0
 30
0.0
 11
350.0
 21
2000.0
 31
0.0
  0
LINE
  5
31D
330
17
100
AcDbEntity
  8
ROADS_LOCAL
100
AcDbLine
 10
550.0
 20
150.0
 30
0.0
 11
550.0
 21
2000.0
 31
0.0
  0
LINE
  5
31E
330
17
100
AcDbEntity
  8
ROADS_LOCAL
100
AcDbLine
 10
750.0
 20
150.0
 30
0.0
 11
750.0
 21
2000.0
 31
0.0
  0
LINE
  5
31F
330
17
100
AcDbEntity
  8
ROADS_LOCAL
100
AcDbLine
 10
950.0
 20
150.0
 30
0.0
 11
950.0
 21
2000.0
 31
0.0
  0
LINE
  5
320
330
17
100
AcDbEntity
  8
ROADS_LOCAL
100
AcDbLine
 10
1150.0
 20
150.0
 30
0.0
 11
1150.0
 21
2000.0
 31
0.0
  0
LINE
  5
321
330
17
100
AcDbEntity
  8
ROADS_LOCAL
100
AcDbLine
 10
1350.0
 20
150.0
 30
0.0
 11
1350.0
 21
2000.0
 31
0.0
  0
LINE
  5
322
330
17
100
AcDbEntity
  8
ROADS_LOCAL
100
AcDbLine
 10
1550.0
 20
150.0
 30
0.0
 11
1550.0
 21
2000.0
 31
0.0
  0
LINE
  5
323
330
17
100
AcDbEntity
  8
ROADS_LOCAL
100
AcDbLine
 10
1750.0
 20
150.0
 30
0.0
 11
1750.0
 21
2000.0
 31
0.0
  0
LINE
  5
324
330
17
100
AcDbEntity
  8
ROADS_LOCAL
100
AcDbLine
 10
1950.0
 20
150.0
 30
0.0
 11
1950.0
 21
2000.0
 31
0.0
  0
LINE
  5
325
330
17
100
AcDbEntity
  8
BRT_LINE
100
AcDbLine
 10
100.0
 20
1000.0
 30
0.0
 11
2200.0
 21
1000.0
 31
0.0
  0
TEXT
  5
326
330
17
100
AcDbEntity
  8
BRT_LINE
 62
1
100
AcDbText
 10
300.0
 20
1055.0
 30
0.0
 40
8.0
  1
BRT LINE
  7
LABEL
 11
300.0
 21
1055.0
 31
0.0
100
AcDbText
 73
2
  0
INSERT
  5
327
330
17
100
AcDbEntity
  8
BRT_STATION
100
AcDbBlockReference
  2
BRT_STATION
 10
600.0
 20
1000.0
 30
0.0
  0
INSERT
  5
329
330
17
100
AcDbEntity
  8
BRT_STATION
100
AcDbBlockReference
  2
BRT_STATION
 10
1100.0
 20
1000.0
 30
0.0
  0
INSERT
  5
32B
330
17
100
AcDbEntity
  8
BRT_STATION
100
AcDbBlockReference
  2
BRT_STATION
 10
1600.0
 20
1000.0
 30
0.0
  0
INSERT
  5
32D
330
17
100
AcDbEntity
  8
ROADS_SECONDARY
100
AcDbBlockReference
  2
ROUNDABOUT
 10
600.0
 20
500.0
 30
0.0
  0
INSERT
  5
32F
330
17
100
AcDbEntity
  8
ROADS_SECONDARY
100
AcDbBlockReference
  2
ROUNDABOUT
 10
600.0
 20
1500.0
 30
0.0
  0
INSERT
  5
331
330
17
100
AcDbEntity
  8
ROADS_SECONDARY
100
AcDbBlockReference
  2
ROUNDABOUT
 10
1600.0
 20
500.0
 30
0.0
  0
INSERT
  5
333
330
17
100
AcDbEntity
  8
ROADS_SECONDARY
100
AcDbBlockReference
  2
ROUNDABOUT
 10
1600.0
 20
1500.0
 30
0.0
  0
SPLINE
  5
335
330
17
100
AcDbEntity
  8
PEDESTRIAN
100
AcDbSpline
 70
0
 71
3
 72
0
 73
0
 74
5
 11
500.0
 21
2000.0
 31
0.0
 11
480.0
 21
1500.0
 31
0.0
 11
470.0
 21
1000.0
 31
0.0
 11
490.0
 21
500.0
 31
0.0
 11
510.0
 21
100.0
 31
0.0
  0
SPLINE
  5
336
330
17
100
AcDbEntity
  8
PEDESTRIAN
100
AcDbSpline
 70
0
 71
3
 72
0
 73
0
 74
5
 11
1500.0
 21
2000.0
 31
0.0
 11
1480.0
 21
1500.0
 31
0.0
 11
1500.0
 21
1000.0
 31
0.0
 11
1520.0
 21
500.0
 31
0.0
 11
1510.0
 21
100.0
 31
0.0
  0
LWPOLYLINE
  5
337
330
17
100
AcDbEntity
  8
EXISTING_STRUCT
100
AcDbPolyline
 90
4
 70
1
 10
1788.0
 20
1688.0
 10
1812.0
 20
1688.0
 10
1812.0
 20
1712.0
 10
1788.0
 20
1712.0
  0
LINE
  5
338
330
17
100
AcDbEntity
  8
EXISTING_STRUCT
100
AcDbLine
 10
1785.0
 20
1685.0
 30
0.0
 11
1815.0
 21
1715.0
 31
0.0
  0
LINE
  5
339
330
17
100
AcDbEntity
  8
EXISTING_STRUCT
100
AcDbLine
 10
1785.0
 20
1715.0
 30
0.0
 11
1815.0
 21
1685.0
 31
0.0
  0
TEXT
  5
33A
330
17
100
AcDbEntity
  8
TEXT_NOTE
100
AcDbText
 10
1820.0
 20
1705.0
 30
0.0
 40
6.0
  1
Water Wells (Qawaser)
  7
NOTE
 11
1820.0
 21
1705.0
 31
0.0
100
AcDbText
  0
LWPOLYLINE
  5
33B
330
17
100
AcDbEntity
  8
EXISTING_STRUCT
100
AcDbPolyline
 90
4
 70
1
 10
1938.0
 20
1388.0
 10
1962.0
 20
1388.0
 10
1962.0
 20
1412.0
 10
1938.0
 20
1412.0
  0
LINE
  5
33C
330
17
100
AcDbEntity
  8
EXISTING_STRUCT
100
AcDbLine
 10
1935.0
 20
1385.0
 30
0.0
 11
1965.0
 21
1415.0
 31
0.0
  0
LINE
  5
33D
330
17
100
AcDbEntity
  8
EXISTING_STRUCT
100
AcDbLine
 10
1935.0
 20
1415.0
 30
0.0
 11
1965.0
 21
1385.0
 31
0.0
  0
TEXT
  5
33E
330
17
100
AcDbEntity
  8
TEXT_NOTE
100
AcDbText
 10
1970.0
 20
1405.0
 30
0.0
 40
6.0
  1
Water Tank (Qawaser)
  7
NOTE
 11
1970.0
 21
1405.0
 31
0.0
100
AcDbText
  0
LWPOLYLINE
  5
33F
330
17
100
AcDbEntity
  8
EXISTING_STRUCT
100
AcDbPolyline
 90
4
 70
1
 10
938.0
 20
1838.0
 10
962.0
 20
1838.0
 10
962.0
 20
1862.0
 10
938.0
 20
1862.0
  0
LINE
  5
340
330
17
100
AcDbEntity
  8
EXISTING_STRUCT
100
AcDbLine
 10
935.0
 20
1835.0
 30
0.0
 11
965.0
 21
1865.0
 31
0.0
  0
LINE
  5
341
330
17
100
AcDbEntity
  8
EXISTING_STRUCT
100
AcDbLine
 10
935.0
 20
1865.0
 30
0.0
 11
965.0
 21
1835.0
 31
0.0
  0
TEXT
  5
342
330
17
100
AcDbEntity
  8
TEXT_NOTE
100
AcDbText
 10
970.0
 20
1855.0
 30
0.0
 40
6.0
  1
Al-Tal Sharia Secondary School
  7
NOTE
 11
970.0
 21
1855.0
 31
0.0
100
AcDbText
  0
LWPOLYLINE
  5
343
330
17
100
AcDbEntity
  8
EXISTING_STRUCT
100
AcDbPolyline
 90
4
 70
1
 10
588.0
 20
1188.0
 10
612.0
 20
1188.0
 10
612.0
 20
1212.0
 10
588.0
 20
1212.0
  0
LINE
  5
344
330
17
100
AcDbEntity
  8
EXISTING_STRUCT
100
AcDbLine
 10
585.0
 20
1185.0
 30
0.0
 11
615.0
 21
1215.0
 31
0.0
  0
LINE
  5
345
330
17
100
AcDbEntity
  8
EXISTING_STRUCT
100
AcDbLine
 10
585.0
 20
1215.0
 30
0.0
 11
615.0
 21
1185.0
 31
0.0
  0
TEXT
  5
346
330
17
100
AcDbEntity
  8
TEXT_NOTE
100
AcDbText
 10
620.0
 20
1205.0
 30
0.0
 40
6.0
  1
Dar Al-Wahi School
  7
NOTE
 11
620.0
 21
1205.0
 31
0.0
100
AcDbText
  0
LWPOLYLINE
  5
347
330
17
100
AcDbEntity
  8
EXISTING_STRUCT
100
AcDbPolyline
 90
4
 70
1
 10
2038.0
 20
688.0
 10
2062.0
 20
688.0
 10
2062.0
 20
712.0
 10
2038.0
 20
712.0
  0
LINE
  5
348
330
17
100
AcDbEntity
  8
EXISTING_STRUCT
100
AcDbLine
 10
2035.0
 20
685.0
 30
0.0
 11
2065.0
 21
715.0
 31
0.0
  0
LINE
  5
349
330
17
100
AcDbEntity
  8
EXISTING_STRUCT
100
AcDbLine
 10
2035.0
 20
715.0
 30
0.0
 11
2065.0
 21
685.0
 31
0.0
  0
TEXT
  5
34A
330
17
100
AcDbEntity
  8
TEXT_NOTE
100
AcDbText
 10
2070.0
 20
705.0
 30
0.0
 40
6.0
  1
Wadi Mousa Electrical Station
  7
NOTE
 11
2070.0
 21
705.0
 31
0.0
100
AcDbText
  0
LWPOLYLINE
  5
34B
330
17
100
AcDbEntity
  8
EXISTING_STRUCT
100
AcDbPolyline
 90
4
 70
1
 10
1488.0
 20
238.0
 10
1512.0
 20
238.0
 10
1512.0
 20
262.0
 10
1488.0
 20
262.0
  0
LINE
  5
34C
330
17
100
AcDbEntity
  8
EXISTING_STRUCT
100
AcDbLine
 10
1485.0
 20
235.0
 30
0.0
 11
1515.0
 21
265.0
 31
0.0
  0
LINE
  5
34D
330
17
100
AcDbEntity
  8
EXISTING_STRUCT
100
AcDbLine
 10
1485.0
 20
265.0
 30
0.0
 11
1515.0
 21
235.0
 31
0.0
  0
TEXT
  5
34E
330
17
100
AcDbEntity
  8
TEXT_NOTE
100
AcDbText
 10
1520.0
 20
255.0
 30
0.0
 40
6.0
  1
Officers Building - Bahrne
  7
NOTE
 11
1520.0
 21
255.0
 31
0.0
100
AcDbText
  0
SPLINE
  5
34F
330
17
100
AcDbEntity
  8
HIGHWAY
100
AcDbSpline
 70
0
 71
3
 72
0
 73
0
 74
4
 11
2300.0
 21
2050.0
 31
0.0
 11
2350.0
 21
1500.0
 31
0.0
 11
2300.0
 21
800.0
 31
0.0
 11
2250.0
 21
100.0
 31
0.0
  0
TEXT
  5
350
330
17
100
AcDbEntity
  8
TEXT_LABEL
100
AcDbText
 10
2380.0
 20
1200.0
 30
0.0
 40
10.0
  1
HIGHWAY M5 (DAMASCUS-HOMS)
  7
LABEL
 11
2380.0
 21
1200.0
 31
0.0
100
AcDbText
  0
LWPOLYLINE
  5
351
330
17
100
AcDbEntity
  8
ZONE_BOUNDARY
100
AcDbPolyline
 90
4
 70
1
 10
1900.0
 20
150.0
 10
2100.0
 20
150.0
 10
2100.0
 20
350.0
 10
1900.0
 20
350.0
  0
HATCH
  5
352
330
17
100
AcDbEntity
  8
HATCH_SOLAR
 62
7
100
AcDbHatch
 10
0.0
 20
0.0
 30
0.0
210
0.0
220
0.0
230
1.0
  2
DOTS
 70
0
 71
0
 91
1
 92
3
 72
0
 73
1
 93
4
 10
1900.0
 20
150.0
 10
2100.0
 20
150.0
 10
2100.0
 20
350.0
 10
1900.0
 20
350.0
 97
0
 75
1
 76
1
 52
0.0
 41
5.0
 77
0
 78
1
 53
0.0
 43
0.0
 44
0.0
 45
3.96875
 46
7.9375
 79
2
 49
0.0
 49
-7.9375
 98
0
  0
TEXT
  5
353
330
17
100
AcDbEntity
  8
TEXT_LABEL
100
AcDbText
 10
2000.0
 20
260.0
 30
0.0
 40
8.0
  1
SOLAR FARM 40ha
  7
LABEL
 72
1
 11
2000.0
 21
260.0
 31
0.0
100
AcDbText
 73
2
  0
LWPOLYLINE
  5
354
330
17
100
AcDbEntity
  8
ZONE_BOUNDARY
100
AcDbPolyline
 90
4
 70
1
 10
300.0
 20
100.0
 10
500.0
 20
100.0
 10
500.0
 20
200.0
 10
300.0
 20
200.0
  0
HATCH
  5
355
330
17
100
AcDbEntity
  8
HATCH_WATER
 62
7
100
AcDbHatch
 10
0.0
 20
0.0
 30
0.0
210
0.0
220
0.0
230
1.0
  2
ANSI31
 70
0
 71
0
 91
1
 92
3
 72
0
 73
1
 93
4
 10
300.0
 20
100.0
 10
500.0
 20
100.0
 10
500.0
 20
200.0
 10
300.0
 20
200.0
 97
0
 75
1
 76
1
 52
0.0
 41
8.0
 77
0
 78
1
 53
45.0
 43
0.0
 44
0.0
 45
-17.9605122424
 46
17.9605122424
 79
0
 98
0
  0
TEXT
  5
356
330
17
100
AcDbEntity
  8
TEXT_LABEL
100
AcDbText
 10
400.0
 20
150.0
 30
0.0
 40
7.0
  1
WATER TREATMENT
  7
LABEL
 72
1
 11
400.0
 21
150.0
 31
0.0
100
AcDbText
 73
2
  0
DIMENSION
  5
357
330
17
100
AcDbEntity
  8
DIMENSIONS
100
AcDbDimension
280
0
  2
*D1
  3
ARCH
 10
200.0
 20
1980.0
 30
0.0
 11
1000.0
 21
1982.5
 31
0.0
 70
32
 71
5
  1
<>
100
AcDbAlignedDimension
 13
200.0
 23
1900.0
 33
0.0
 14
1800.0
 24
2000.0
 34
0.0
 50
0.0
100
AcDbRotatedDimension
  0
DIMENSION
  5
366
330
17
100
AcDbEntity
  8
DIMENSIONS
100
AcDbDimension
280
0
  2
*D2
  3
ARCH
 10
150.0
 20
200.0
 30
0.0
 11
150.0
 21
204.0
 31
0.0
 70
32
 71
5
  1
<>
100
AcDbAlignedDimension
 13
150.0
 23
200.0
 33
0.0
 14
150.0
 24
1900.0
 34
0.0
 50
0.0
100
AcDbRotatedDimension
  0
INSERT
  5
377
330
17
100
AcDbEntity
  8
NORTH_ARROW
100
AcDbBlockReference
  2
NORTH_ARROW
 10
2350.0
 20
1900.0
 30
0.0
 41
4.0
 42
4.0
  0
INSERT
  5
379
330
17
100
AcDbEntity
  8
SCALE_BAR
100
AcDbBlockReference
  2
SCALE_BAR_1000
 10
100.0
 20
-60.0
 30
0.0
 41
2.0
 42
2.0
  0
TEXT
  5
37B
330
17
100
AcDbEntity
  8
SCALE_BAR
100
AcDbText
 10
300.0
 20
-85.0
 30
0.0
 40
8.0
  1
Scale 1:2000
  7
LABEL
 11
300.0
 21
-85.0
 31
0.0
100
AcDbText
  0
INSERT
  5
447
330
17
100
AcDbEntity
  8
TREES
100
AcDbBlockReference
  2
TREE_PLAN
 10
586.3942679845788
 20
195.25010755222667
 30
0.0
  0
INSERT
  5
449
330
17
100
AcDbEntity
  8
TREES
100
AcDbBlockReference
  2
TREE_PLAN
 10
582.7502931836912
 20
237.23210738148822
 30
0.0
  0
INSERT
  5
44B
330
17
100
AcDbEntity
  8
TREES
100
AcDbBlockReference
  2
TREE_PLAN
 10
587.3647121416401
 20
281.7669948742291
 30
0.0
  0
INSERT
  5
44D
330
17
100
AcDbEntity
  8
TREES
100
AcDbBlockReference
  2
TREE_PLAN
 10
588.9217956770484
 20
315.86938832629414
 30
0.0
  0
INSERT
  5
44F
330
17
100
AcDbEntity
  8
TREES
100
AcDbBlockReference
  2
TREE_PLAN
 10
584.2192181968527
 20
355.2979721943807
 30
0.0
  0
INSERT
  5
451
330
17
100
AcDbEntity
  8
TREES
100
AcDbBlockReference
  2
TREE_PLAN
 10
582.1863797480361
 20
400.0535528810336
 30
0.0
  0
INSERT
  5
453
330
17
100
AcDbEntity
  8
TREES
100
AcDbBlockReference
  2
TREE_PLAN
 10
580.2653596968387
 20
436.9883765068665
 30
0.0
  0
INSERT
  5
455
330
17
100
AcDbEntity
  8
TREES
100
AcDbBlockReference
  2
TREE_PLAN
 10
586.4988443777952
 20
480.44941480603217
 30
0.0
  0
INSERT
  5
457
330
17
100
AcDbEntity
  8
TREES
100
AcDbBlockReference
  2
TREE_PLAN
 10
582.204406220407
 20
520.8926568387591
 30
0.0
  0
INSERT
  5
459
330
17
100
AcDbEntity
  8
TREES
100
AcDbBlockReference
  2
TREE_PLAN
 10
588.0943045667783
 20
555.0649875967806
 30
0.0
  0
INSERT
  5
45B
330
17
100
AcDbEntity
  8
TREES
100
AcDbBlockReference
  2
TREE_PLAN
 10
588.058192518328
 20
601.9813939498823
 30
0.0
  0
INSERT
  5
45D
330
17
100
AcDbEntity
  8
TREES
100
AcDbBlockReference
  2
TREE_PLAN
 10
583.40250516518
 20
636.5547949981178
 30
0.0
  0
INSERT
  5
45F
330
17
100
AcDbEntity
  8
TREES
100
AcDbBlockReference
  2
TREE_PLAN
 10
589.5721307220679
 20
678.3659454511263
 30
0.0
  0
INSERT
  5
461
330
17
100
AcDbEntity
  8
TREES
100
AcDbBlockReference
  2
TREE_PLAN
 10
580.9274584338015
 20
715.9671637683347
 30
0.0
  0
INSERT
  5
463
330
17
100
AcDbEntity
  8
TREES
100
AcDbBlockReference
  2
TREE_PLAN
 10
588.4749436634746
 20
761.0372603136689
 30
0.0
  0
INSERT
  5
465
330
17
100
AcDbEntity
  8
TREES
100
AcDbBlockReference
  2
TREE_PLAN
 10
588.0712827327438
 20
802.2973178669382
 30
0.0
  0
INSERT
  5
467
330
17
100
AcDbEntity
  8
TREES
100
AcDbBlockReference
  2
TREE_PLAN
 10
585.362280914547
 20
844.7311576397937
 30
0.0
  0
INSERT
  5
469
330
17
100
AcDbEntity
  8
TREES
100
AcDbBlockReference
  2
TREE_PLAN
 10
583.7853437720835
 20
880.5204063127322
 30
0.0
  0
INSERT
  5
46B
330
17
100
AcDbEntity
  8
TREES
100
AcDbBlockReference
  2
TREE_PLAN
 10
588.2940466425299
 20
921.1851975236425
 30
0.0
  0
INSERT
  5
46D
330
17
100
AcDbEntity
  8
TREES
100
AcDbBlockReference
  2
TREE_PLAN
 10
588.6170690031078
 20
960.7735214525676
 30
0.0
  0
INSERT
  5
46F
330
17
100
AcDbEntity
  8
TREES
100
AcDbBlockReference
  2
TREE_PLAN
 10
587.0457183621493
 20
995.4582438365567
 30
0.0
  0
INSERT
  5
471
330
17
100
AcDbEntity
  8
TREES
100
AcDbBlockReference
  2
TREE_PLAN
 10
582.2789827565155
 20
1037.893879636021
 30
0.0
  0
INSERT
  5
473
330
17
100
AcDbEntity
  8
TREES
100
AcDbBlockReference
  2
TREE_PLAN
 10
580.7979197692363
 20
1077.3279088636102
 30
0.0
  0
INSERT
  5
475
330
17
100
AcDbEntity
  8
TREES
100
AcDbBlockReference
  2
TREE_PLAN
 10
581.0100142940973
 20
1117.7797360311008
 30
0.0
  0
INSERT
  5
477
330
17
100
AcDbEntity
  8
TREES
100
AcDbBlockReference
  2
TREE_PLAN
 10
586.356844442644
 20
1158.6483217897007
 30
0.0
  0
INSERT
  5
479
330
17
100
AcDbEntity
  8
TREES
100
AcDbBlockReference
  2
TREE_PLAN
 10
583.7018096711688
 20
1197.0950703077149
 30
0.0
  0
INSERT
  5
47B
330
17
100
AcDbEntity
  8
TREES
100
AcDbBlockReference
  2
TREE_PLAN
 10
582.6697782204911
 20
1244.366545877125
 30
0.0
  0
INSERT
  5
47D
330
17
100
AcDbEntity
  8
TREES
100
AcDbBlockReference
  2
TREE_PLAN
 10
586.4803538524659
 20
1281.09131005667
 30
0.0
  0
INSERT
  5
47F
330
17
100
AcDbEntity
  8
TREES
100
AcDbBlockReference
  2
TREE_PLAN
 10
581.711386481981
 20
1322.2912679795036
 30
0.0
  0
INSERT
  5
481
330
17
100
AcDbEntity
  8
TREES
100
AcDbBlockReference
  2
TREE_PLAN
 10
581.6340249376193
 20
1358.7945544175764
 30
0.0
  0
INSERT
  5
483
330
17
100
AcDbEntity
  8
TREES
100
AcDbBlockReference
  2
TREE_PLAN
 10
589.8952335063659
 20
1401.399997598541
 30
0.0
  0
INSERT
  5
485
330
17
100
AcDbEntity
  8
TREES
100
AcDbBlockReference
  2
TREE_PLAN
 10
585.5694974377465
 20
1441.8461425098988
 30
0.0
  0
INSERT
  5
487
330
17
100
AcDbEntity
  8
TREES
100
AcDbBlockReference
  2
TREE_PLAN
 10
588.4285192018981
 20
1482.7599991154625
 30
0.0
  0
INSERT
  5
489
330
17
100
AcDbEntity
  8
TREES
100
AcDbBlockReference
  2
TREE_PLAN
 10
582.2904807196411
 20
1515.3210024390403
 30
0.0
  0
INSERT
  5
48B
330
17
100
AcDbEntity
  8
TREES
100
AcDbBlockReference
  2
TREE_PLAN
 10
583.1545304805908
 20
1557.677408759757
 30
0.0
  0
INSERT
  5
48D
330
17
100
AcDbEntity
  8
TREES
100
AcDbBlockReference
  2
TREE_PLAN
 10
582.1098284358633
 20
1604.4290971433506
 30
0.0
  0
INSERT
  5
48F
330
17
100
AcDbEntity
  8
TREES
100
AcDbBlockReference
  2
TREE_PLAN
 10
588.7636762647267
 20
1638.1467788079847
 30
0.0
  0
INSERT
  5
491
330
17
100
AcDbEntity
  8
TREES
100
AcDbBlockReference
  2
TREE_PLAN
 10
586.5543866529488
 20
1678.9563190106066
 30
0.0
  0
INSERT
  5
493
330
17
100
AcDbEntity
  8
TREES
100
AcDbBlockReference
  2
TREE_PLAN
 10
589.1454758974054
 20
1719.588518525874
 30
0.0
  0
INSERT
  5
495
330
17
100
AcDbEntity
  8
TREES
100
AcDbBlockReference
  2
TREE_PLAN
 10
582.6488016649805
 20
1757.4662750769398
 30
0.0
  0
INSERT
  5
497
330
17
100
AcDbEntity
  8
TREES
100
AcDbBlockReference
  2
TREE_PLAN
 10
585.6136813416315
 20
1797.6274160852292
 30
0.0
  0
INSERT
  5
499
330
17
100
AcDbEntity
  8
TREES
100
AcDbBlockReference
  2
TREE_PLAN
 10
585.8458599022354
 20
1843.9782288360248
 30
0.0
  0
INSERT
  5
49B
330
17
100
AcDbEntity
  8
TREES
100
AcDbBlockReference
  2
TREE_PLAN
 10
583.994005051404
 20
1877.193207591573
 30
0.0
  0
INSERT
  5
49D
330
17
100
AcDbEntity
  8
TREES
100
AcDbBlockReference
  2
TREE_PLAN
 10
619.9753760649511
 20
200.09526293676464
 30
0.0
  0
INSERT
  5
49F
330
17
100
AcDbEntity
  8
TREES
100
AcDbBlockReference
  2
TREE_PLAN
 10
610.9090941217379
 20
235.47116375424736
 30
0.0
  0
INSERT
  5
4A1
330
17
100
AcDbEntity
  8
TREES
100
AcDbBlockReference
  2
TREE_PLAN
 10
611.0964913035066
 20
281.2744604170309
 30
0.0
  0
INSERT
  5
4A3
330
17
100
AcDbEntity
  8
TREES
100
AcDbBlockReference
  2
TREE_PLAN
 10
617.9207936436296
 20
319.2215996679968
 30
0.0
  0
INSERT
  5
4A5
330
17
100
AcDbEntity
  8
TREES
100
AcDbBlockReference
  2
TREE_PLAN
 10
610.6352770615196
 20
358.8161928650654
 30
0.0
  0
INSERT
  5
4A7
330
17
100
AcDbEntity
  8
TREES
100
AcDbBlockReference
  2
TREE_PLAN
 10
619.961213802401
 20
400.2911434509914
 30
0.0
  0
INSERT
  5
4A9
330
17
100
AcDbEntity
  8
TREES
100
AcDbBlockReference
  2
TREE_PLAN
 10
619.7107837761362
 20
443.607797022345
 30
0.0
  0
INSERT
  5
4AB
330
17
100
AcDbEntity
  8
TREES
100
AcDbBlockReference
  2
TREE_PLAN
 10
610.1148102194283
 20
482.20721819360193
 30
0.0
  0
INSERT
  5
4AD
330
17
100
AcDbEntity
  8
TREES
100
AcDbBlockReference
  2
TREE_PLAN
 10
616.8171036902658
 20
520.3697033040879
 30
0.0
  0
INSERT
  5
4AF
330
17
100
AcDbEntity
  8
TREES
100
AcDbBlockReference
  2
TREE_PLAN
 10
612.6682518995254
 20
561.409617985798
 30
0.0
  0
INSERT
  5
4B1
330
17
100
AcDbEntity
  8
TREES
100
AcDbBlockReference
  2
TREE_PLAN
 10
611.1155217359587
 20
599.347652506691
 30
0.0
  0
INSERT
  5
4B3
330
17
100
AcDbEntity
  8
TREES
100
AcDbBlockReference
  2
TREE_PLAN
 10
614.5372370632921
 20
644.5381592752108
 30
0.0
  0
INSERT
  5
4B5
330
17
100
AcDbEntity
  8
TREES
100
AcDbBlockReference
  2
TREE_PLAN
 10
618.758529403782
 20
677.633890507511
 30
0.0
  0
INSERT
  5
4B7
330
17
100
AcDbEntity
  8
TREES
100
AcDbBlockReference
  2
TREE_PLAN
 10
615.005861130503
 20
716.7865188053013
 30
0.0
  0
INSERT
  5
4B9
330
17
100
AcDbEntity
  8
TREES
100
AcDbBlockReference
  2
TREE_PLAN
 10
619.1262783934482
 20
763.7051856983677
 30
0.0
  0
INSERT
  5
4BB
330
17
100
AcDbEntity
  8
TREES
100
AcDbBlockReference
  2
TREE_PLAN
 10
612.9844479144863
 20
801.3894949486601
 30
0.0
  0
INSERT
  5
4BD
330
17
100
AcDbEntity
  8
TREES
100
AcDbBlockReference
  2
TREE_PLAN
 10
616.0897021143817
 20
836.5283926854963
 30
0.0
  0
INSERT
  5
4BF
330
17
100
AcDbEntity
  8
TREES
100
AcDbBlockReference
  2
TREE_PLAN
 10
617.6251080007515
 20
880.3937903011963
 30
0.0
  0
INSERT
  5
4C1
330
17
100
AcDbEntity
  8
TREES
100
AcDbBlockReference
  2
TREE_PLAN
 10
617.7862647863055
 20
920.3035367219518
 30
0.0
  0
INSERT
  5
4C3
330
17
100
AcDbEntity
  8
TREES
100
AcDbBlockReference
  2
TREE_PLAN
 10
610.0057189612794
 20
958.2415605700468
 30
0.0
  0
INSERT
  5
4C5
330
17
100
AcDbEntity
  8
TREES
100
AcDbBlockReference
  2
TREE_PLAN
 10
610.1947674238584
 20
1004.2909861626462
 30
0.0
  0
INSERT
  5
4C7
330
17
100
AcDbEntity
  8
TREES
100
AcDbBlockReference
  2
TREE_PLAN
 10
618.7872187782318
 20
1043.3166552936118
 30
0.0
  0
INSERT
  5
4C9
330
17
100
AcDbEntity
  8
TREES
100
AcDbBlockReference
  2
TREE_PLAN
 10
613.0751412540266
 20
1075.579251664942
 30
0.0
  0
INSERT
  5
4CB
330
17
100
AcDbEntity
  8
TREES
100
AcDbBlockReference
  2
TREE_PLAN
 10
618.7800959920404
 20
1124.46949445298
 30
0.0
  0
INSERT
  5
4CD
330
17
100
AcDbEntity
  8
TREES
100
AcDbBlockReference
  2
TREE_PLAN
 10
610.8565345206788
 20
1159.859904633166
 30
0.0
  0
INSERT
  5
4CF
330
17
100
AcDbEntity
  8
TREES
100
AcDbBlockReference
  2
TREE_PLAN
 10
610.6921251846838
 20
1202.6060216525723
 30
0.0
  0
INSERT
  5
4D1
330
17
100
AcDbEntity
  8
TREES
100
AcDbBlockReference
  2
TREE_PLAN
 10
617.6583442930698
 20
1236.2839146449976
 30
0.0
  0
INSERT
  5
4D3
330
17
100
AcDbEntity
  8
TREES
100
AcDbBlockReference
  2
TREE_PLAN
 10
614.7528237809873
 20
1280.4980359349495
 30
0.0
  0
INSERT
  5
4D5
330
17
100
AcDbEntity
  8
TREES
100
AcDbBlockReference
  2
TREE_PLAN
 10
612.6505662894006
 20
1323.7243304108526
 30
0.0
  0
INSERT
  5
4D7
330
17
100
AcDbEntity
  8
TREES
100
AcDbBlockReference
  2
TREE_PLAN
 10
614.2313794020089
 20
1357.1179820544207
 30
0.0
  0
INSERT
  5
4D9
330
17
100
AcDbEntity
  8
TREES
100
AcDbBlockReference
  2
TREE_PLAN
 10
615.3929608877946
 20
1402.2993106908998
 30
0.0
  0
INSERT
  5
4DB
330
17
100
AcDbEntity
  8
TREES
100
AcDbBlockReference
  2
TREE_PLAN
 10
612.0115106338969
 20
1438.117162913009
 30
0.0
  0
INSERT
  5
4DD
330
17
100
AcDbEntity
  8
TREES
100
AcDbBlockReference
  2
TREE_PLAN
 10
619.951493566609
 20
1481.4987805763944
 30
0.0
  0
INSERT
  5
4DF
330
17
100
AcDbEntity
  8
TREES
100
AcDbBlockReference
  2
TREE_PLAN
 10
614.381000839145
 20
1520.175758410356
 30
0.0
  0
INSERT
  5
4E1
330
17
100
AcDbEntity
  8
TREES
100
AcDbBlockReference
  2
TREE_PLAN
 10
611.2100419586826
 20
1557.2469733703156
 30
0.0
  0
INSERT
  5
4E3
330
17
100
AcDbEntity
  8
TREES
100
AcDbBlockReference
  2
TREE_PLAN
 10
613.3808556214746
 20
1600.8830871845723
 30
0.0
  0
INSERT
  5
4E5
330
17
100
AcDbEntity
  8
TREES
100
AcDbBlockReference
  2
TREE_PLAN
 10
612.3011473259658
 20
1637.2021738445155
 30
0.0
  0
INSERT
  5
4E7
330
17
100
AcDbEntity
  8
TREES
100
AcDbBlockReference
  2
TREE_PLAN
 10
610.7099308600904
 20
1681.311029572701
 30
0.0
  0
INSERT
  5
4E9
330
17
100
AcDbEntity
  8
TREES
100
AcDbBlockReference
  2
TREE_PLAN
 10
612.2894178381115
 20
1724.0542001300612
 30
0.0
  0
INSERT
  5
4EB
330
17
100
AcDbEntity
  8
TREES
100
AcDbBlockReference
  2
TREE_PLAN
 10
618.5963540025375
 20
1755.7085734988866
 30
0.0
  0
INSERT
  5
4ED
330
17
100
AcDbEntity
  8
TREES
100
AcDbBlockReference
  2
TREE_PLAN
 10
612.38004634369
 20
1801.689777782963
 30
0.0
  0
INSERT
  5
4EF
330
17
100
AcDbEntity
  8
TREES
100
AcDbBlockReference
  2
TREE_PLAN
 10
612.1423680737043
 20
1836.3231184872502
 30
0.0
  0
INSERT
  5
4F1
330
17
100
AcDbEntity
  8
TREES
100
AcDbBlockReference
  2
TREE_PLAN
 10
619.3551424058068
 20
1880.7104309332528
 30
0.0
  0
INSERT
  5
4F3
330
17
100
AcDbEntity
  8
TREES
100
AcDbBlockReference
  2
TREE_PLAN
 10
1584.7267102631179
 20
202.84619424290753
 30
0.0
  0
INSERT
  5
4F5
330
17
100
AcDbEntity
  8
TREES
100
AcDbBlockReference
  2
TREE_PLAN
 10
1588.0749699776663
 20
236.90409914361877
 30
0.0
  0
INSERT
  5
4F7
330
17
100
AcDbEntity
  8
TREES
100
AcDbBlockReference
  2
TREE_PLAN
 10
1580.9693081422881
 20
279.3105118240638
 30
0.0
  0
INSERT
  5
4F9
330
17
100
AcDbEntity
  8
TREES
100
AcDbBlockReference
  2
TREE_PLAN
 10
1584.2357862301992
 20
319.67024668036674
 30
0.0
  0
INSERT
  5
4FB
330
17
100
AcDbEntity
  8
TREES
100
AcDbBlockReference
  2
TREE_PLAN
 10
1587.2907584945985
 20
361.733645472933
 30
0.0
  0
INSERT
  5
4FD
330
17
100
AcDbEntity
  8
TREES
100
AcDbBlockReference
  2
TREE_PLAN
 10
1589.8416521136596
 20
395.9841787115196
 30
0.0
  0
INSERT
  5
4FF
330
17
100
AcDbEntity
  8
TREES
100
AcDbBlockReference
  2
TREE_PLAN
 10
1584.0262128210227
 20
438.39302605394965
 30
0.0
  0
INSERT
  5
501
330
17
100
AcDbEntity
  8
TREES
100
AcDbBlockReference
  2
TREE_PLAN
 10
1588.6167253635278
 20
477.48656333920286
 30
0.0
  0
INSERT
  5
503
330
17
100
AcDbEntity
  8
TREES
100
AcDbBlockReference
  2
TREE_PLAN
 10
1581.902089084408
 20
519.4861354783313
 30
0.0
  0
INSERT
  5
505
330
17
100
AcDbEntity
  8
TREES
100
AcDbBlockReference
  2
TREE_PLAN
 10
1584.218816398344
 20
557.7854514466694
 30
0.0
  0
INSERT
  5
507
330
17
100
AcDbEntity
  8
TREES
100
AcDbBlockReference
  2
TREE_PLAN
 10
1582.498064478821
 20
604.2326559927601
 30
0.0
  0
INSERT
  5
509
330
17
100
AcDbEntity
  8
TREES
100
AcDbBlockReference
  2
TREE_PLAN
 10
1584.4313074505346
 20
643.6134910476183
 30
0.0
  0
INSERT
  5
50B
330
17
100
AcDbEntity
  8
TREES
100
AcDbBlockReference
  2
TREE_PLAN
 10
1585.5032531244985
 20
675.5058832952489
 30
0.0
  0
INSERT
  5
50D
330
17
100
AcDbEntity
  8
TREES
100
AcDbBlockReference
  2
TREE_PLAN
 10
1589.9928246841273
 20
723.3602758507996
 30
0.0
  0
INSERT
  5
50F
330
17
100
AcDbEntity
  8
TREES
100
AcDbBlockReference
  2
TREE_PLAN
 10
1589.6899625728474
 20
764.2636698300813
 30
0.0
  0
INSERT
  5
511
330
17
100
AcDbEntity
  8
TREES
100
AcDbBlockReference
  2
TREE_PLAN
 10
1588.486957344143
 20
796.6631111060392
 30
0.0
  0
INSERT
  5
513
330
17
100
AcDbEntity
  8
TREES
100
AcDbBlockReference
  2
TREE_PLAN
 10
1584.8564112545073
 20
837.1374729919918
 30
0.0
  0
INSERT
  5
515
330
17
100
AcDbEntity
  8
TREES
100
AcDbBlockReference
  2
TREE_PLAN
 10
1584.0104029254944
 20
875.5863539997218
 30
0.0
  0
INSERT
  5
517
330
17
100
AcDbEntity
  8
TREES
100
AcDbBlockReference
  2
TREE_PLAN
 10
1583.789731189769
 20
924.8530884377973
 30
0.0
  0
INSERT
  5
519
330
17
100
AcDbEntity
  8
TREES
100
AcDbBlockReference
  2
TREE_PLAN
 10
1582.6520305817214
 20
962.8407060194857
 30
0.0
  0
INSERT
  5
51B
330
17
100
AcDbEntity
  8
TREES
100
AcDbBlockReference
  2
TREE_PLAN
 10
1584.5500836733913
 20
999.2300748599016
 30
0.0
  0
INSERT
  5
51D
330
17
100
AcDbEntity
  8
TREES
100
AcDbBlockReference
  2
TREE_PLAN
 10
1589.5731764085967
 20
1044.9542268949272
 30
0.0
  0
INSERT
  5
51F
330
17
100
AcDbEntity
  8
TREES
100
AcDbBlockReference
  2
TREE_PLAN
 10
1585.5576832340562
 20
1082.1840827529631
 30
0.0
  0
INSERT
  5
521
330
17
100
AcDbEntity
  8
TREES
100
AcDbBlockReference
  2
TREE_PLAN
 10
1581.5479682527407
 20
1117.9670782549456
 30
0.0
  0
INSERT
  5
523
330
17
100
AcDbEntity
  8
TREES
100
AcDbBlockReference
  2
TREE_PLAN
 10
1589.6870936496916
 20
1160.7918029081625
 30
0.0
  0
INSERT
  5
525
330
17
100
AcDbEntity
  8
TREES
100
AcDbBlockReference
  2
TREE_PLAN
 10
1585.4219520137428
 20
1202.4797556037906
 30
0.0
  0
INSERT
  5
527
330
17
100
AcDbEntity
  8
TREES
100
AcDbBlockReference
  2
TREE_PLAN
 10
1580.571652729075
 20
1240.8417759445897
 30
0.0
  0
INSERT
  5
529
330
17
100
AcDbEntity
  8
TREES
100
AcDbBlockReference
  2
TREE_PLAN
 10
1585.0285038291952
 20
1283.5271989204828
 30
0.0
  0
INSERT
  5
52B
330
17
100
AcDbEntity
  8
TREES
100
AcDbBlockReference
  2
TREE_PLAN
 10
1581.5743272793948
 20
1324.6077890327444
 30
0.0
  0
INSERT
  5
52D
330
17
100
AcDbEntity
  8
TREES
100
AcDbBlockReference
  2
TREE_PLAN
 10
1580.8011146524059
 20
1356.8582496098072
 30
0.0
  0
INSERT
  5
52F
330
17
100
AcDbEntity
  8
TREES
100
AcDbBlockReference
  2
TREE_PLAN
 10
1585.9503510645002
 20
1401.752125536041
 30
0.0
  0
INSERT
  5
531
330
17
100
AcDbEntity
  8
TREES
100
AcDbBlockReference
  2
TREE_PLAN
 10
1582.3520389500093
 20
1436.1988661394712
 30
0.0
  0
INSERT
  5
533
330
17
100
AcDbEntity
  8
TREES
100
AcDbBlockReference
  2
TREE_PLAN
 10
1588.9028731412943
 20
1477.4621534778862
 30
0.0
  0
INSERT
  5
535
330
17
100
AcDbEntity
  8
TREES
100
AcDbBlockReference
  2
TREE_PLAN
 10
1585.9451915353345
 20
1521.193815103321
 30
0.0
  0
INSERT
  5
537
330
17
100
AcDbEntity
  8
TREES
100
AcDbBlockReference
  2
TREE_PLAN
 10
1584.1922491533587
 20
1560.8367228929123
 30
0.0
  0
INSERT
  5
539
330
17
100
AcDbEntity
  8
TREES
100
AcDbBlockReference
  2
TREE_PLAN
 10
1585.2278271553196
 20
1604.3470625773643
 30
0.0
  0
INSERT
  5
53B
330
17
100
AcDbEntity
  8
TREES
100
AcDbBlockReference
  2
TREE_PLAN
 10
1582.0425919942354
 20
1642.1619180078942
 30
0.0
  0
INSERT
  5
53D
330
17
100
AcDbEntity
  8
TREES
100
AcDbBlockReference
  2
TREE_PLAN
 10
1582.3868595261586
 20
1678.9578584679125
 30
0.0
  0
INSERT
  5
53F
330
17
100
AcDbEntity
  8
TREES
100
AcDbBlockReference
  2
TREE_PLAN
 10
1586.7169022295998
 20
1717.9999707979875
 30
0.0
  0
INSERT
  5
541
330
17
100
AcDbEntity
  8
TREES
100
AcDbBlockReference
  2
TREE_PLAN
 10
1583.1617719627186
 20
1762.518644924144
 30
0.0
  0
INSERT
  5
543
330
17
100
AcDbEntity
  8
TREES
100
AcDbBlockReference
  2
TREE_PLAN
 10
1580.7254311449315
 20
1799.5828552261858
 30
0.0
  0
INSERT
  5
545
330
17
100
AcDbEntity
  8
TREES
100
AcDbBlockReference
  2
TREE_PLAN
 10
1589.9845444085445
 20
1844.960964478551
 30
0.0
  0
INSERT
  5
547
330
17
100
AcDbEntity
  8
TREES
100
AcDbBlockReference
  2
TREE_PLAN
 10
1580.7326072109963
 20
1877.1315431226703
 30
0.0
  0
INSERT
  5
549
330
17
100
AcDbEntity
  8
TREES
100
AcDbBlockReference
  2
TREE_PLAN
 10
1612.652004147504
 20
204.3325937799371
 30
0.0
  0
INSERT
  5
54B
330
17
100
AcDbEntity
  8
TREES
100
AcDbBlockReference
  2
TREE_PLAN
 10
1618.8086417368645
 20
243.79270242484543
 30
0.0
  0
INSERT
  5
54D
330
17
100
AcDbEntity
  8
TREES
100
AcDbBlockReference
  2
TREE_PLAN
 10
1613.695270887389
 20
276.5774683235723
 30
0.0
  0
INSERT
  5
54F
330
17
100
AcDbEntity
  8
TREES
100
AcDbBlockReference
  2
TREE_PLAN
 10
1618.3374495463981
 20
322.0353992508737
 30
0.0
  0
INSERT
  5
551
330
17
100
AcDbEntity
  8
TREES
100
AcDbBlockReference
  2
TREE_PLAN
 10
1616.1167776572595
 20
364.87233063631504
 30
0.0
  0
INSERT
  5
553
330
17
100
AcDbEntity
  8
TREES
100
AcDbBlockReference
  2
TREE_PLAN
 10
1616.5397631771073
 20
395.0782310715216
 30
0.0
  0
INSERT
  5
555
330
17
100
AcDbEntity
  8
TREES
100
AcDbBlockReference
  2
TREE_PLAN
 10
1618.1710413511546
 20
437.99378752199976
 30
0.0
  0
INSERT
  5
557
330
17
100
AcDbEntity
  8
TREES
100
AcDbBlockReference
  2
TREE_PLAN
 10
1616.6338871496607
 20
484.38930003927106
 30
0.0
  0
INSERT
  5
559
330
17
100
AcDbEntity
  8
TREES
100
AcDbBlockReference
  2
TREE_PLAN
 10
1611.3429111439336
 20
516.154286704191
 30
0.0
  0
INSERT
  5
55B
330
17
100
AcDbEntity
  8
TREES
100
AcDbBlockReference
  2
TREE_PLAN
 10
1611.0703597770942
 20
560.5322364088481
 30
0.0
  0
INSERT
  5
55D
330
17
100
AcDbEntity
  8
TREES
100
AcDbBlockReference
  2
TREE_PLAN
 10
1612.7234821231482
 20
601.0482982703022
 30
0.0
  0
INSERT
  5
55F
330
17
100
AcDbEntity
  8
TREES
100
AcDbBlockReference
  2
TREE_PLAN
 10
1617.176121871388
 20
637.0359731232745
 30
0.0
  0
INSERT
  5
561
330
17
100
AcDbEntity
  8
TREES
100
AcDbBlockReference
  2
TREE_PLAN
 10
1616.3423795888507
 20
677.6398390163041
 30
0.0
  0
INSERT
  5
563
330
17
100
AcDbEntity
  8
TREES
100
AcDbBlockReference
  2
TREE_PLAN
 10
1614.8853185214937
 20
724.0533649107932
 30
0.0
  0
INSERT
  5
565
330
17
100
AcDbEntity
  8
TREES
100
AcDbBlockReference
  2
TREE_PLAN
 10
1618.4610371329486
 20
755.9229846771274
 30
0.0
  0
INSERT
  5
567
330
17
100
AcDbEntity
  8
TREES
100
AcDbBlockReference
  2
TREE_PLAN
 10
1614.2357577256373
 20
797.7668022397226
 30
0.0
  0
INSERT
  5
569
330
17
100
AcDbEntity
  8
TREES
100
AcDbBlockReference
  2
TREE_PLAN
 10
1610.0354568908779
 20
842.7111922301963
 30
0.0
  0
INSERT
  5
56B
330
17
100
AcDbEntity
  8
TREES
100
AcDbBlockReference
  2
TREE_PLAN
 10
1616.3711337730138
 20
877.6195526243434
 30
0.0
  0
INSERT
  5
56D
330
17
100
AcDbEntity
  8
TREES
100
AcDbBlockReference
  2
TREE_PLAN
 10
1617.4123090834794
 20
920.5168042112639
 30
0.0
  0
INSERT
  5
56F
330
17
100
AcDbEntity
  8
TREES
100
AcDbBlockReference
  2
TREE_PLAN
 10
1614.2768691898068
 20
955.0966969960834
 30
0.0
  0
INSERT
  5
571
330
17
100
AcDbEntity
  8
TREES
100
AcDbBlockReference
  2
TREE_PLAN
 10
1610.7524386007376
 20
1003.8310639330015
 30
0.0
  0
INSERT
  5
573
330
17
100
AcDbEntity
  8
TREES
100
AcDbBlockReference
  2
TREE_PLAN
 10
1619.039285715599
 20
1040.4559028920553
 30
0.0
  0
INSERT
  5
575
330
17
100
AcDbEntity
  8
TREES
100
AcDbBlockReference
  2
TREE_PLAN
 10
1618.3459501988602
 20
1080.8250956648978
 30
0.0
  0
INSERT
  5
577
330
17
100
AcDbEntity
  8
TREES
100
AcDbBlockReference
  2
TREE_PLAN
 10
1611.480937855675
 20
1116.2744551928213
 30
0.0
  0
INSERT
  5
579
330
17
100
AcDbEntity
  8
TREES
100
AcDbBlockReference
  2
TREE_PLAN
 10
1613.0825834993013
 20
1163.9898148874258
 30
0.0
  0
INSERT
  5
57B
330
17
100
AcDbEntity
  8
TREES
100
AcDbBlockReference
  2
TREE_PLAN
 10
1617.9612230488804
 20
1203.607025820009
 30
0.0
  0
INSERT
  5
57D
330
17
100
AcDbEntity
  8
TREES
100
AcDbBlockReference
  2
TREE_PLAN
 10
1618.9892463652648
 20
1237.1007653833976
 30
0.0
  0
INSERT
  5
57F
330
17
100
AcDbEntity
  8
TREES
100
AcDbBlockReference
  2
TREE_PLAN
 10
1612.4952973922293
 20
1276.0279362167178
 30
0.0
  0
INSERT
  5
581
330
17
100
AcDbEntity
  8
TREES
100
AcDbBlockReference
  2
TREE_PLAN
 10
1617.8011624187145
 20
1323.8413470145101
 30
0.0
  0
INSERT
  5
583
330
17
100
AcDbEntity
  8
TREES
100
AcDbBlockReference
  2
TREE_PLAN
 10
1614.0637738983212
 20
1361.2066151015072
 30
0.0
  0
INSERT
  5
585
330
17
100
AcDbEntity
  8
TREES
100
AcDbBlockReference
  2
TREE_PLAN
 10
1611.545533383322
 20
1404.2988101569367
 30
0.0
  0
INSERT
  5
587
330
17
100
AcDbEntity
  8
TREES
100
AcDbBlockReference
  2
TREE_PLAN
 10
1618.6460569621997
 20
1444.7620603293096
 30
0.0
  0
INSERT
  5
589
330
17
100
AcDbEntity
  8
TREES
100
AcDbBlockReference
  2
TREE_PLAN
 10
1618.107717199404
 20
1483.8141620466333
 30
0.0
  0
INSERT
  5
58B
330
17
100
AcDbEntity
  8
TREES
100
AcDbBlockReference
  2
TREE_PLAN
 10
1610.247863618982
 20
1522.3656447175508
 30
0.0
  0
INSERT
  5
58D
330
17
100
AcDbEntity
  8
TREES
100
AcDbBlockReference
  2
TREE_PLAN
 10
1613.3218546794642
 20
1564.3081588604832
 30
0.0
  0
INSERT
  5
58F
330
17
100
AcDbEntity
  8
TREES
100
AcDbBlockReference
  2
TREE_PLAN
 10
1618.0223513893714
 20
1603.6406402837529
 30
0.0
  0
INSERT
  5
591
330
17
100
AcDbEntity
  8
TREES
100
AcDbBlockReference
  2
TREE_PLAN
 10
1618.1074931657438
 20
1637.6680570959447
 30
0.0
  0
INSERT
  5
593
330
17
100
AcDbEntity
  8
TREES
100
AcDbBlockReference
  2
TREE_PLAN
 10
1617.8737450913547
 20
1676.0809562640295
 30
0.0
  0
INSERT
  5
595
330
17
100
AcDbEntity
  8
TREES
100
AcDbBlockReference
  2
TREE_PLAN
 10
1618.7216678290608
 20
1723.5859325133779
 30
0.0
  0
INSERT
  5
597
330
17
100
AcDbEntity
  8
TREES
100
AcDbBlockReference
  2
TREE_PLAN
 10
1612.2243371754566
 20
1763.1658660559692
 30
0.0
  0
INSERT
  5
599
330
17
100
AcDbEntity
  8
TREES
100
AcDbBlockReference
  2
TREE_PLAN
 10
1614.6030323467894
 20
1798.051908673386
 30
0.0
  0
INSERT
  5
59B
330
17
100
AcDbEntity
  8
TREES
100
AcDbBlockReference
  2
TREE_PLAN
 10
1617.9534549915286
 20
1837.2759548740778
 30
0.0
  0
INSERT
  5
59D
330
17
100
AcDbEntity
  8
TREES
100
AcDbBlockReference
  2
TREE_PLAN
 10
1610.2366443470146
 20
1876.931297883277
 30
0.0
  0
INSERT
  5
59F
330
17
100
AcDbEntity
  8
TREES
100
AcDbBlockReference
  2
TREE_SMALL
 10
250.0
 20
485.0
 30
0.0
  0
INSERT
  5
5A1
330
17
100
AcDbEntity
  8
TREES
100
AcDbBlockReference
  2
TREE_SMALL
 10
290.0
 20
485.0
 30
0.0
  0
INSERT
  5
5A3
330
17
100
AcDbEntity
  8
TREES
100
AcDbBlockReference
  2
TREE_SMALL
 10
330.0
 20
485.0
 30
0.0
  0
INSERT
  5
5A5
330
17
100
AcDbEntity
  8
TREES
100
AcDbBlockReference
  2
TREE_SMALL
 10
370.0
 20
485.0
 30
0.0
  0
INSERT
  5
5A7
330
17
100
AcDbEntity
  8
TREES
100
AcDbBlockReference
  2
TREE_SMALL
 10
410.0
 20
485.0
 30
0.0
  0
INSERT
  5
5A9
330
17
100
AcDbEntity
  8
TREES
100
AcDbBlockReference
  2
TREE_SMALL
 10
450.0
 20
485.0
 30
0.0
  0
INSERT
  5
5AB
330
17
100
AcDbEntity
  8
TREES
100
AcDbBlockReference
  2
TREE_SMALL
 10
490.0
 20
485.0
 30
0.0
  0
INSERT
  5
5AD
330
17
100
AcDbEntity
  8
TREES
100
AcDbBlockReference
  2
TREE_SMALL
 10
530.0
 20
485.0
 30
0.0
  0
INSERT
  5
5AF
330
17
100
AcDbEntity
  8
TREES
100
AcDbBlockReference
  2
TREE_SMALL
 10
570.0
 20
485.0
 30
0.0
  0
INSERT
  5
5B1
330
17
100
AcDbEntity
  8
TREES
100
AcDbBlockReference
  2
TREE_SMALL
 10
610.0
 20
485.0
 30
0.0
  0
INSERT
  5
5B3
330
17
100
AcDbEntity
  8
TREES
100
AcDbBlockReference
  2
TREE_SMALL
 10
650.0
 20
485.0
 30
0.0
  0
INSERT
  5
5B5
330
17
100
AcDbEntity
  8
TREES
100
AcDbBlockReference
  2
TREE_SMALL
 10
690.0
 20
485.0
 30
0.0
  0
INSERT
  5
5B7
330
17
100
AcDbEntity
  8
TREES
100
AcDbBlockReference
  2
TREE_SMALL
 10
730.0
 20
485.0
 30
0.0
  0
INSERT
  5
5B9
330
17
100
AcDbEntity
  8
TREES
100
AcDbBlockReference
  2
TREE_SMALL
 10
770.0
 20
485.0
 30
0.0
  0
INSERT
  5
5BB
330
17
100
AcDbEntity
  8
TREES
100
AcDbBlockReference
  2
TREE_SMALL
 10
810.0
 20
485.0
 30
0.0
  0
INSERT
  5
5BD
330
17
100
AcDbEntity
  8
TREES
100
AcDbBlockReference
  2
TREE_SMALL
 10
850.0
 20
485.0
 30
0.0
  0
INSERT
  5
5BF
330
17
100
AcDbEntity
  8
TREES
100
AcDbBlockReference
  2
TREE_SMALL
 10
890.0
 20
485.0
 30
0.0
  0
INSERT
  5
5C1
330
17
100
AcDbEntity
  8
TREES
100
AcDbBlockReference
  2
TREE_SMALL
 10
930.0
 20
485.0
 30
0.0
  0
INSERT
  5
5C3
330
17
100
AcDbEntity
  8
TREES
100
AcDbBlockReference
  2
TREE_SMALL
 10
970.0
 20
485.0
 30
0.0
  0
INSERT
  5
5C5
330
17
100
AcDbEntity
  8
TREES
100
AcDbBlockReference
  2
TREE_SMALL
 10
1010.0
 20
485.0
 30
0.0
  0
INSERT
  5
5C7
330
17
100
AcDbEntity
  8
TREES
100
AcDbBlockReference
  2
TREE_SMALL
 10
1050.0
 20
485.0
 30
0.0
  0
INSERT
  5
5C9
330
17
100
AcDbEntity
  8
TREES
100
AcDbBlockReference
  2
TREE_SMALL
 10
1090.0
 20
485.0
 30
0.0
  0
INSERT
  5
5CB
330
17
100
AcDbEntity
  8
TREES
100
AcDbBlockReference
  2
TREE_SMALL
 10
1130.0
 20
485.0
 30
0.0
  0
INSERT
  5
5CD
330
17
100
AcDbEntity
  8
TREES
100
AcDbBlockReference
  2
TREE_SMALL
 10
1170.0
 20
485.0
 30
0.0
  0
INSERT
  5
5CF
330
17
100
AcDbEntity
  8
TREES
100
AcDbBlockReference
  2
TREE_SMALL
 10
1210.0
 20
485.0
 30
0.0
  0
INSERT
  5
5D1
330
17
100
AcDbEntity
  8
TREES
100
AcDbBlockReference
  2
TREE_SMALL
 10
1250.0
 20
485.0
 30
0.0
  0
INSERT
  5
5D3
330
17
100
AcDbEntity
  8
TREES
100
AcDbBlockReference
  2
TREE_SMALL
 10
1290.0
 20
485.0
 30
0.0
  0
INSERT
  5
5D5
330
17
100
AcDbEntity
  8
TREES
100
AcDbBlockReference
  2
TREE_SMALL
 10
1330.0
 20
485.0
 30
0.0
  0
INSERT
  5
5D7
330
17
100
AcDbEntity
  8
TREES
100
AcDbBlockReference
  2
TREE_SMALL
 10
1370.0
 20
485.0
 30
0.0
  0
INSERT
  5
5D9
330
17
100
AcDbEntity
  8
TREES
100
AcDbBlockReference
  2
TREE_SMALL
 10
1410.0
 20
485.0
 30
0.0
  0
INSERT
  5
5DB
330
17
100
AcDbEntity
  8
TREES
100
AcDbBlockReference
  2
TREE_SMALL
 10
1450.0
 20
485.0
 30
0.0
  0
INSERT
  5
5DD
330
17
100
AcDbEntity
  8
TREES
100
AcDbBlockReference
  2
TREE_SMALL
 10
1490.0
 20
485.0
 30
0.0
  0
INSERT
  5
5DF
330
17
100
AcDbEntity
  8
TREES
100
AcDbBlockReference
  2
TREE_SMALL
 10
1530.0
 20
485.0
 30
0.0
  0
INSERT
  5
5E1
330
17
100
AcDbEntity
  8
TREES
100
AcDbBlockReference
  2
TREE_SMALL
 10
1570.0
 20
485.0
 30
0.0
  0
INSERT
  5
5E3
330
17
100
AcDbEntity
  8
TREES
100
AcDbBlockReference
  2
TREE_SMALL
 10
1610.0
 20
485.0
 30
0.0
  0
INSERT
  5
5E5
330
17
100
AcDbEntity
  8
TREES
100
AcDbBlockReference
  2
TREE_SMALL
 10
1650.0
 20
485.0
 30
0.0
  0
INSERT
  5
5E7
330
17
100
AcDbEntity
  8
TREES
100
AcDbBlockReference
  2
TREE_SMALL
 10
1690.0
 20
485.0
 30
0.0
  0
INSERT
  5
5E9
330
17
100
AcDbEntity
  8
TREES
100
AcDbBlockReference
  2
TREE_SMALL
 10
1730.0
 20
485.0
 30
0.0
  0
INSERT
  5
5EB
330
17
100
AcDbEntity
  8
TREES
100
AcDbBlockReference
  2
TREE_SMALL
 10
1770.0
 20
485.0
 30
0.0
  0
INSERT
  5
5ED
330
17
100
AcDbEntity
  8
TREES
100
AcDbBlockReference
  2
TREE_SMALL
 10
1810.0
 20
485.0
 30
0.0
  0
INSERT
  5
5EF
330
17
100
AcDbEntity
  8
TREES
100
AcDbBlockReference
  2
TREE_SMALL
 10
1850.0
 20
485.0
 30
0.0
  0
INSERT
  5
5F1
330
17
100
AcDbEntity
  8
TREES
100
AcDbBlockReference
  2
TREE_SMALL
 10
1890.0
 20
485.0
 30
0.0
  0
INSERT
  5
5F3
330
17
100
AcDbEntity
  8
TREES
100
AcDbBlockReference
  2
TREE_SMALL
 10
1930.0
 20
485.0
 30
0.0
  0
INSERT
  5
5F5
330
17
100
AcDbEntity
  8
TREES
100
AcDbBlockReference
  2
TREE_SMALL
 10
1970.0
 20
485.0
 30
0.0
  0
INSERT
  5
5F7
330
17
100
AcDbEntity
  8
TREES
100
AcDbBlockReference
  2
TREE_SMALL
 10
2010.0
 20
485.0
 30
0.0
  0
INSERT
  5
5F9
330
17
100
AcDbEntity
  8
TREES
100
AcDbBlockReference
  2
TREE_SMALL
 10
250.0
 20
515.0
 30
0.0
  0
INSERT
  5
5FB
330
17
100
AcDbEntity
  8
TREES
100
AcDbBlockReference
  2
TREE_SMALL
 10
290.0
 20
515.0
 30
0.0
  0
INSERT
  5
5FD
330
17
100
AcDbEntity
  8
TREES
100
AcDbBlockReference
  2
TREE_SMALL
 10
330.0
 20
515.0
 30
0.0
  0
INSERT
  5
5FF
330
17
100
AcDbEntity
  8
TREES
100
AcDbBlockReference
  2
TREE_SMALL
 10
370.0
 20
515.0
 30
0.0
  0
INSERT
  5
601
330
17
100
AcDbEntity
  8
TREES
100
AcDbBlockReference
  2
TREE_SMALL
 10
410.0
 20
515.0
 30
0.0
  0
INSERT
  5
603
330
17
100
AcDbEntity
  8
TREES
100
AcDbBlockReference
  2
TREE_SMALL
 10
450.0
 20
515.0
 30
0.0
  0
INSERT
  5
605
330
17
100
AcDbEntity
  8
TREES
100
AcDbBlockReference
  2
TREE_SMALL
 10
490.0
 20
515.0
 30
0.0
  0
INSERT
  5
607
330
17
100
AcDbEntity
  8
TREES
100
AcDbBlockReference
  2
TREE_SMALL
 10
530.0
 20
515.0
 30
0.0
  0
INSERT
  5
609
330
17
100
AcDbEntity
  8
TREES
100
AcDbBlockReference
  2
TREE_SMALL
 10
570.0
 20
515.0
 30
0.0
  0
INSERT
  5
60B
330
17
100
AcDbEntity
  8
TREES
100
AcDbBlockReference
  2
TREE_SMALL
 10
610.0
 20
515.0
 30
0.0
  0
INSERT
  5
60D
330
17
100
AcDbEntity
  8
TREES
100
AcDbBlockReference
  2
TREE_SMALL
 10
650.0
 20
515.0
 30
0.0
  0
INSERT
  5
60F
330
17
100
AcDbEntity
  8
TREES
100
AcDbBlockReference
  2
TREE_SMALL
 10
690.0
 20
515.0
 30
0.0
  0
INSERT
  5
611
330
17
100
AcDbEntity
  8
TREES
100
AcDbBlockReference
  2
TREE_SMALL
 10
730.0
 20
515.0
 30
0.0
  0
INSERT
  5
613
330
17
100
AcDbEntity
  8
TREES
100
AcDbBlockReference
  2
TREE_SMALL
 10
770.0
 20
515.0
 30
0.0
  0
INSERT
  5
615
330
17
100
AcDbEntity
  8
TREES
100
AcDbBlockReference
  2
TREE_SMALL
 10
810.0
 20
515.0
 30
0.0
  0
INSERT
  5
617
330
17
100
AcDbEntity
  8
TREES
100
AcDbBlockReference
  2
TREE_SMALL
 10
850.0
 20
515.0
 30
0.0
  0
INSERT
  5
619
330
17
100
AcDbEntity
  8
TREES
100
AcDbBlockReference
  2
TREE_SMALL
 10
890.0
 20
515.0
 30
0.0
  0
INSERT
  5
61B
330
17
100
AcDbEntity
  8
TREES
100
AcDbBlockReference
  2
TREE_SMALL
 10
930.0
 20
515.0
 30
0.0
  0
INSERT
  5
61D
330
17
100
AcDbEntity
  8
TREES
100
AcDbBlockReference
  2
TREE_SMALL
 10
970.0
 20
515.0
 30
0.0
  0
INSERT
  5
61F
330
17
100
AcDbEntity
  8
TREES
100
AcDbBlockReference
  2
TREE_SMALL
 10
1010.0
 20
515.0
 30
0.0
  0
INSERT
  5
621
330
17
100
AcDbEntity
  8
TREES
100
AcDbBlockReference
  2
TREE_SMALL
 10
1050.0
 20
515.0
 30
0.0
  0
INSERT
  5
623
330
17
100
AcDbEntity
  8
TREES
100
AcDbBlockReference
  2
TREE_SMALL
 10
1090.0
 20
515.0
 30
0.0
  0
INSERT
  5
625
330
17
100
AcDbEntity
  8
TREES
100
AcDbBlockReference
  2
TREE_SMALL
 10
1130.0
 20
515.0
 30
0.0
  0
INSERT
  5
627
330
17
100
AcDbEntity
  8
TREES
100
AcDbBlockReference
  2
TREE_SMALL
 10
1170.0
 20
515.0
 30
0.0
  0
INSERT
  5
629
330
17
100
AcDbEntity
  8
TREES
100
AcDbBlockReference
  2
TREE_SMALL
 10
1210.0
 20
515.0
 30
0.0
  0
INSERT
  5
62B
330
17
100
AcDbEntity
  8
TREES
100
AcDbBlockReference
  2
TREE_SMALL
 10
1250.0
 20
515.0
 30
0.0
  0
INSERT
  5
62D
330
17
100
AcDbEntity
  8
TREES
100
AcDbBlockReference
  2
TREE_SMALL
 10
1290.0
 20
515.0
 30
0.0
  0
INSERT
  5
62F
330
17
100
AcDbEntity
  8
TREES
100
AcDbBlockReference
  2
TREE_SMALL
 10
1330.0
 20
515.0
 30
0.0
  0
INSERT
  5
631
330
17
100
AcDbEntity
  8
TREES
100
AcDbBlockReference
  2
TREE_SMALL
 10
1370.0
 20
515.0
 30
0.0
  0
INSERT
  5
633
330
17
100
AcDbEntity
  8
TREES
100
AcDbBlockReference
  2
TREE_SMALL
 10
1410.0
 20
515.0
 30
0.0
  0
INSERT
  5
635
330
17
100
AcDbEntity
  8
TREES
100
AcDbBlockReference
  2
TREE_SMALL
 10
1450.0
 20
515.0
 30
0.0
  0
INSERT
  5
637
330
17
100
AcDbEntity
  8
TREES
100
AcDbBlockReference
  2
TREE_SMALL
 10
1490.0
 20
515.0
 30
0.0
  0
INSERT
  5
639
330
17
100
AcDbEntity
  8
TREES
100
AcDbBlockReference
  2
TREE_SMALL
 10
1530.0
 20
515.0
 30
0.0
  0
INSERT
  5
63B
330
17
100
AcDbEntity
  8
TREES
100
AcDbBlockReference
  2
TREE_SMALL
 10
1570.0
 20
515.0
 30
0.0
  0
INSERT
  5
63D
330
17
100
AcDbEntity
  8
TREES
100
AcDbBlockReference
  2
TREE_SMALL
 10
1610.0
 20
515.0
 30
0.0
  0
INSERT
  5
63F
330
17
100
AcDbEntity
  8
TREES
100
AcDbBlockReference
  2
TREE_SMALL
 10
1650.0
 20
515.0
 30
0.0
  0
INSERT
  5
641
330
17
100
AcDbEntity
  8
TREES
100
AcDbBlockReference
  2
TREE_SMALL
 10
1690.0
 20
515.0
 30
0.0
  0
INSERT
  5
643
330
17
100
AcDbEntity
  8
TREES
100
AcDbBlockReference
  2
TREE_SMALL
 10
1730.0
 20
515.0
 30
0.0
  0
INSERT
  5
645
330
17
100
AcDbEntity
  8
TREES
100
AcDbBlockReference
  2
TREE_SMALL
 10
1770.0
 20
515.0
 30
0.0
  0
INSERT
  5
647
330
17
100
AcDbEntity
  8
TREES
100
AcDbBlockReference
  2
TREE_SMALL
 10
1810.0
 20
515.0
 30
0.0
  0
INSERT
  5
649
330
17
100
AcDbEntity
  8
TREES
100
AcDbBlockReference
  2
TREE_SMALL
 10
1850.0
 20
515.0
 30
0.0
  0
INSERT
  5
64B
330
17
100
AcDbEntity
  8
TREES
100
AcDbBlockReference
  2
TREE_SMALL
 10
1890.0
 20
515.0
 30
0.0
  0
INSERT
  5
64D
330
17
100
AcDbEntity
  8
TREES
100
AcDbBlockReference
  2
TREE_SMALL
 10
1930.0
 20
515.0
 30
0.0
  0
INSERT
  5
64F
330
17
100
AcDbEntity
  8
TREES
100
AcDbBlockReference
  2
TREE_SMALL
 10
1970.0
 20
515.0
 30
0.0
  0
INSERT
  5
651
330
17
100
AcDbEntity
  8
TREES
100
AcDbBlockReference
  2
TREE_SMALL
 10
2010.0
 20
515.0
 30
0.0
  0
INSERT
  5
653
330
17
100
AcDbEntity
  8
TREES
100
AcDbBlockReference
  2
TREE_SMALL
 10
250.0
 20
1485.0
 30
0.0
  0
INSERT
  5
655
330
17
100
AcDbEntity
  8
TREES
100
AcDbBlockReference
  2
TREE_SMALL
 10
290.0
 20
1485.0
 30
0.0
  0
INSERT
  5
657
330
17
100
AcDbEntity
  8
TREES
100
AcDbBlockReference
  2
TREE_SMALL
 10
330.0
 20
1485.0
 30
0.0
  0
INSERT
  5
659
330
17
100
AcDbEntity
  8
TREES
100
AcDbBlockReference
  2
TREE_SMALL
 10
370.0
 20
1485.0
 30
0.0
  0
INSERT
  5
65B
330
17
100
AcDbEntity
  8
TREES
100
AcDbBlockReference
  2
TREE_SMALL
 10
410.0
 20
1485.0
 30
0.0
  0
INSERT
  5
65D
330
17
100
AcDbEntity
  8
TREES
100
AcDbBlockReference
  2
TREE_SMALL
 10
450.0
 20
1485.0
 30
0.0
  0
INSERT
  5
65F
330
17
100
AcDbEntity
  8
TREES
100
AcDbBlockReference
  2
TREE_SMALL
 10
490.0
 20
1485.0
 30
0.0
  0
INSERT
  5
661
330
17
100
AcDbEntity
  8
TREES
100
AcDbBlockReference
  2
TREE_SMALL
 10
530.0
 20
1485.0
 30
0.0
  0
INSERT
  5
663
330
17
100
AcDbEntity
  8
TREES
100
AcDbBlockReference
  2
TREE_SMALL
 10
570.0
 20
1485.0
 30
0.0
  0
INSERT
  5
665
330
17
100
AcDbEntity
  8
TREES
100
AcDbBlockReference
  2
TREE_SMALL
 10
610.0
 20
1485.0
 30
0.0
  0
INSERT
  5
667
330
17
100
AcDbEntity
  8
TREES
100
AcDbBlockReference
  2
TREE_SMALL
 10
650.0
 20
1485.0
 30
0.0
  0
INSERT
  5
669
330
17
100
AcDbEntity
  8
TREES
100
AcDbBlockReference
  2
TREE_SMALL
 10
690.0
 20
1485.0
 30
0.0
  0
INSERT
  5
66B
330
17
100
AcDbEntity
  8
TREES
100
AcDbBlockReference
  2
TREE_SMALL
 10
730.0
 20
1485.0
 30
0.0
  0
INSERT
  5
66D
330
17
100
AcDbEntity
  8
TREES
100
AcDbBlockReference
  2
TREE_SMALL
 10
770.0
 20
1485.0
 30
0.0
  0
INSERT
  5
66F
330
17
100
AcDbEntity
  8
TREES
100
AcDbBlockReference
  2
TREE_SMALL
 10
810.0
 20
1485.0
 30
0.0
  0
INSERT
  5
671
330
17
100
AcDbEntity
  8
TREES
100
AcDbBlockReference
  2
TREE_SMALL
 10
850.0
 20
1485.0
 30
0.0
  0
INSERT
  5
673
330
17
100
AcDbEntity
  8
TREES
100
AcDbBlockReference
  2
TREE_SMALL
 10
890.0
 20
1485.0
 30
0.0
  0
INSERT
  5
675
330
17
100
AcDbEntity
  8
TREES
100
AcDbBlockReference
  2
TREE_SMALL
 10
930.0
 20
1485.0
 30
0.0
  0
INSERT
  5
677
330
17
100
AcDbEntity
  8
TREES
100
AcDbBlockReference
  2
TREE_SMALL
 10
970.0
 20
1485.0
 30
0.0
  0
INSERT
  5
679
330
17
100
AcDbEntity
  8
TREES
100
AcDbBlockReference
  2
TREE_SMALL
 10
1010.0
 20
1485.0
 30
0.0
  0
INSERT
  5
67B
330
17
100
AcDbEntity
  8
TREES
100
AcDbBlockReference
  2
TREE_SMALL
 10
1050.0
 20
1485.0
 30
0.0
  0
INSERT
  5
67D
330
17
100
AcDbEntity
  8
TREES
100
AcDbBlockReference
  2
TREE_SMALL
 10
1090.0
 20
1485.0
 30
0.0
  0
INSERT
  5
67F
330
17
100
AcDbEntity
  8
TREES
100
AcDbBlockReference
  2
TREE_SMALL
 10
1130.0
 20
1485.0
 30
0.0
  0
INSERT
  5
681
330
17
100
AcDbEntity
  8
TREES
100
AcDbBlockReference
  2
TREE_SMALL
 10
1170.0
 20
1485.0
 30
0.0
  0
INSERT
  5
683
330
17
100
AcDbEntity
  8
TREES
100
AcDbBlockReference
  2
TREE_SMALL
 10
1210.0
 20
1485.0
 30
0.0
  0
INSERT
  5
685
330
17
100
AcDbEntity
  8
TREES
100
AcDbBlockReference
  2
TREE_SMALL
 10
1250.0
 20
1485.0
 30
0.0
  0
INSERT
  5
687
330
17
100
AcDbEntity
  8
TREES
100
AcDbBlockReference
  2
TREE_SMALL
 10
1290.0
 20
1485.0
 30
0.0
  0
INSERT
  5
689
330
17
100
AcDbEntity
  8
TREES
100
AcDbBlockReference
  2
TREE_SMALL
 10
1330.0
 20
1485.0
 30
0.0
  0
INSERT
  5
68B
330
17
100
AcDbEntity
  8
TREES
100
AcDbBlockReference
  2
TREE_SMALL
 10
1370.0
 20
1485.0
 30
0.0
  0
INSERT
  5
68D
330
17
100
AcDbEntity
  8
TREES
100
AcDbBlockReference
  2
TREE_SMALL
 10
1410.0
 20
1485.0
 30
0.0
  0
INSERT
  5
68F
330
17
100
AcDbEntity
  8
TREES
100
AcDbBlockReference
  2
TREE_SMALL
 10
1450.0
 20
1485.0
 30
0.0
  0
INSERT
  5
691
330
17
100
AcDbEntity
  8
TREES
100
AcDbBlockReference
  2
TREE_SMALL
 10
1490.0
 20
1485.0
 30
0.0
  0
INSERT
  5
693
330
17
100
AcDbEntity
  8
TREES
100
AcDbBlockReference
  2
TREE_SMALL
 10
1530.0
 20
1485.0
 30
0.0
  0
INSERT
  5
695
330
17
100
AcDbEntity
  8
TREES
100
AcDbBlockReference
  2
TREE_SMALL
 10
1570.0
 20
1485.0
 30
0.0
  0
INSERT
  5
697
330
17
100
AcDbEntity
  8
TREES
100
AcDbBlockReference
  2
TREE_SMALL
 10
1610.0
 20
1485.0
 30
0.0
  0
INSERT
  5
699
330
17
100
AcDbEntity
  8
TREES
100
AcDbBlockReference
  2
TREE_SMALL
 10
1650.0
 20
1485.0
 30
0.0
  0
INSERT
  5
69B
330
17
100
AcDbEntity
  8
TREES
100
AcDbBlockReference
  2
TREE_SMALL
 10
1690.0
 20
1485.0
 30
0.0
  0
INSERT
  5
69D
330
17
100
AcDbEntity
  8
TREES
100
AcDbBlockReference
  2
TREE_SMALL
 10
1730.0
 20
1485.0
 30
0.0
  0
INSERT
  5
69F
330
17
100
AcDbEntity
  8
TREES
100
AcDbBlockReference
  2
TREE_SMALL
 10
1770.0
 20
1485.0
 30
0.0
  0
INSERT
  5
6A1
330
17
100
AcDbEntity
  8
TREES
100
AcDbBlockReference
  2
TREE_SMALL
 10
1810.0
 20
1485.0
 30
0.0
  0
INSERT
  5
6A3
330
17
100
AcDbEntity
  8
TREES
100
AcDbBlockReference
  2
TREE_SMALL
 10
1850.0
 20
1485.0
 30
0.0
  0
INSERT
  5
6A5
330
17
100
AcDbEntity
  8
TREES
100
AcDbBlockReference
  2
TREE_SMALL
 10
1890.0
 20
1485.0
 30
0.0
  0
INSERT
  5
6A7
330
17
100
AcDbEntity
  8
TREES
100
AcDbBlockReference
  2
TREE_SMALL
 10
1930.0
 20
1485.0
 30
0.0
  0
INSERT
  5
6A9
330
17
100
AcDbEntity
  8
TREES
100
AcDbBlockReference
  2
TREE_SMALL
 10
1970.0
 20
1485.0
 30
0.0
  0
INSERT
  5
6AB
330
17
100
AcDbEntity
  8
TREES
100
AcDbBlockReference
  2
TREE_SMALL
 10
2010.0
 20
1485.0
 30
0.0
  0
INSERT
  5
6AD
330
17
100
AcDbEntity
  8
TREES
100
AcDbBlockReference
  2
TREE_SMALL
 10
250.0
 20
1515.0
 30
0.0
  0
INSERT
  5
6AF
330
17
100
AcDbEntity
  8
TREES
100
AcDbBlockReference
  2
TREE_SMALL
 10
290.0
 20
1515.0
 30
0.0
  0
INSERT
  5
6B1
330
17
100
AcDbEntity
  8
TREES
100
AcDbBlockReference
  2
TREE_SMALL
 10
330.0
 20
1515.0
 30
0.0
  0
INSERT
  5
6B3
330
17
100
AcDbEntity
  8
TREES
100
AcDbBlockReference
  2
TREE_SMALL
 10
370.0
 20
1515.0
 30
0.0
  0
INSERT
  5
6B5
330
17
100
AcDbEntity
  8
TREES
100
AcDbBlockReference
  2
TREE_SMALL
 10
410.0
 20
1515.0
 30
0.0
  0
INSERT
  5
6B7
330
17
100
AcDbEntity
  8
TREES
100
AcDbBlockReference
  2
TREE_SMALL
 10
450.0
 20
1515.0
 30
0.0
  0
INSERT
  5
6B9
330
17
100
AcDbEntity
  8
TREES
100
AcDbBlockReference
  2
TREE_SMALL
 10
490.0
 20
1515.0
 30
0.0
  0
INSERT
  5
6BB
330
17
100
AcDbEntity
  8
TREES
100
AcDbBlockReference
  2
TREE_SMALL
 10
530.0
 20
1515.0
 30
0.0
  0
INSERT
  5
6BD
330
17
100
AcDbEntity
  8
TREES
100
AcDbBlockReference
  2
TREE_SMALL
 10
570.0
 20
1515.0
 30
0.0
  0
INSERT
  5
6BF
330
17
100
AcDbEntity
  8
TREES
100
AcDbBlockReference
  2
TREE_SMALL
 10
610.0
 20
1515.0
 30
0.0
  0
INSERT
  5
6C1
330
17
100
AcDbEntity
  8
TREES
100
AcDbBlockReference
  2
TREE_SMALL
 10
650.0
 20
1515.0
 30
0.0
  0
INSERT
  5
6C3
330
17
100
AcDbEntity
  8
TREES
100
AcDbBlockReference
  2
TREE_SMALL
 10
690.0
 20
1515.0
 30
0.0
  0
INSERT
  5
6C5
330
17
100
AcDbEntity
  8
TREES
100
AcDbBlockReference
  2
TREE_SMALL
 10
730.0
 20
1515.0
 30
0.0
  0
INSERT
  5
6C7
330
17
100
AcDbEntity
  8
TREES
100
AcDbBlockReference
  2
TREE_SMALL
 10
770.0
 20
1515.0
 30
0.0
  0
INSERT
  5
6C9
330
17
100
AcDbEntity
  8
TREES
100
AcDbBlockReference
  2
TREE_SMALL
 10
810.0
 20
1515.0
 30
0.0
  0
INSERT
  5
6CB
330
17
100
AcDbEntity
  8
TREES
100
AcDbBlockReference
  2
TREE_SMALL
 10
850.0
 20
1515.0
 30
0.0
  0
INSERT
  5
6CD
330
17
100
AcDbEntity
  8
TREES
100
AcDbBlockReference
  2
TREE_SMALL
 10
890.0
 20
1515.0
 30
0.0
  0
INSERT
  5
6CF
330
17
100
AcDbEntity
  8
TREES
100
AcDbBlockReference
  2
TREE_SMALL
 10
930.0
 20
1515.0
 30
0.0
  0
INSERT
  5
6D1
330
17
100
AcDbEntity
  8
TREES
100
AcDbBlockReference
  2
TREE_SMALL
 10
970.0
 20
1515.0
 30
0.0
  0
INSERT
  5
6D3
330
17
100
AcDbEntity
  8
TREES
100
AcDbBlockReference
  2
TREE_SMALL
 10
1010.0
 20
1515.0
 30
0.0
  0
INSERT
  5
6D5
330
17
100
AcDbEntity
  8
TREES
100
AcDbBlockReference
  2
TREE_SMALL
 10
1050.0
 20
1515.0
 30
0.0
  0
INSERT
  5
6D7
330
17
100
AcDbEntity
  8
TREES
100
AcDbBlockReference
  2
TREE_SMALL
 10
1090.0
 20
1515.0
 30
0.0
  0
INSERT
  5
6D9
330
17
100
AcDbEntity
  8
TREES
100
AcDbBlockReference
  2
TREE_SMALL
 10
1130.0
 20
1515.0
 30
0.0
  0
INSERT
  5
6DB
330
17
100
AcDbEntity
  8
TREES
100
AcDbBlockReference
  2
TREE_SMALL
 10
1170.0
 20
1515.0
 30
0.0
  0
INSERT
  5
6DD
330
17
100
AcDbEntity
  8
TREES
100
AcDbBlockReference
  2
TREE_SMALL
 10
1210.0
 20
1515.0
 30
0.0
  0
INSERT
  5
6DF
330
17
100
AcDbEntity
  8
TREES
100
AcDbBlockReference
  2
TREE_SMALL
 10
1250.0
 20
1515.0
 30
0.0
  0
INSERT
  5
6E1
330
17
100
AcDbEntity
  8
TREES
100
AcDbBlockReference
  2
TREE_SMALL
 10
1290.0
 20
1515.0
 30
0.0
  0
INSERT
  5
6E3
330
17
100
AcDbEntity
  8
TREES
100
AcDbBlockReference
  2
TREE_SMALL
 10
1330.0
 20
1515.0
 30
0.0
  0
INSERT
  5
6E5
330
17
100
AcDbEntity
  8
TREES
100
AcDbBlockReference
  2
TREE_SMALL
 10
1370.0
 20
1515.0
 30
0.0
  0
INSERT
  5
6E7
330
17
100
AcDbEntity
  8
TREES
100
AcDbBlockReference
  2
TREE_SMALL
 10
1410.0
 20
1515.0
 30
0.0
  0
INSERT
  5
6E9
330
17
100
AcDbEntity
  8
TREES
100
AcDbBlockReference
  2
TREE_SMALL
 10
1450.0
 20
1515.0
 30
0.0
  0
INSERT
  5
6EB
330
17
100
AcDbEntity
  8
TREES
100
AcDbBlockReference
  2
TREE_SMALL
 10
1490.0
 20
1515.0
 30
0.0
  0
INSERT
  5
6ED
330
17
100
AcDbEntity
  8
TREES
100
AcDbBlockReference
  2
TREE_SMALL
 10
1530.0
 20
1515.0
 30
0.0
  0
INSERT
  5
6EF
330
17
100
AcDbEntity
  8
TREES
100
AcDbBlockReference
  2
TREE_SMALL
 10
1570.0
 20
1515.0
 30
0.0
  0
INSERT
  5
6F1
330
17
100
AcDbEntity
  8
TREES
100
AcDbBlockReference
  2
TREE_SMALL
 10
1610.0
 20
1515.0
 30
0.0
  0
INSERT
  5
6F3
330
17
100
AcDbEntity
  8
TREES
100
AcDbBlockReference
  2
TREE_SMALL
 10
1650.0
 20
1515.0
 30
0.0
  0
INSERT
  5
6F5
330
17
100
AcDbEntity
  8
TREES
100
AcDbBlockReference
  2
TREE_SMALL
 10
1690.0
 20
1515.0
 30
0.0
  0
INSERT
  5
6F7
330
17
100
AcDbEntity
  8
TREES
100
AcDbBlockReference
  2
TREE_SMALL
 10
1730.0
 20
1515.0
 30
0.0
  0
INSERT
  5
6F9
330
17
100
AcDbEntity
  8
TREES
100
AcDbBlockReference
  2
TREE_SMALL
 10
1770.0
 20
1515.0
 30
0.0
  0
INSERT
  5
6FB
330
17
100
AcDbEntity
  8
TREES
100
AcDbBlockReference
  2
TREE_SMALL
 10
1810.0
 20
1515.0
 30
0.0
  0
INSERT
  5
6FD
330
17
100
AcDbEntity
  8
TREES
100
AcDbBlockReference
  2
TREE_SMALL
 10
1850.0
 20
1515.0
 30
0.0
  0
INSERT
  5
6FF
330
17
100
AcDbEntity
  8
TREES
100
AcDbBlockReference
  2
TREE_SMALL
 10
1890.0
 20
1515.0
 30
0.0
  0
INSERT
  5
701
330
17
100
AcDbEntity
  8
TREES
100
AcDbBlockReference
  2
TREE_SMALL
 10
1930.0
 20
1515.0
 30
0.0
  0
INSERT
  5
703
330
17
100
AcDbEntity
  8
TREES
100
AcDbBlockReference
  2
TREE_SMALL
 10
1970.0
 20
1515.0
 30
0.0
  0
INSERT
  5
705
330
17
100
AcDbEntity
  8
TREES
100
AcDbBlockReference
  2
TREE_SMALL
 10
2010.0
 20
1515.0
 30
0.0
  0
INSERT
  5
707
330
17
100
AcDbEntity
  8
TREES
100
AcDbBlockReference
  2
TREE_SMALL
 10
585.0
 20
200.0
 30
0.0
  0
INSERT
  5
709
330
17
100
AcDbEntity
  8
TREES
100
AcDbBlockReference
  2
TREE_SMALL
 10
585.0
 20
240.0
 30
0.0
  0
INSERT
  5
70B
330
17
100
AcDbEntity
  8
TREES
100
AcDbBlockReference
  2
TREE_SMALL
 10
585.0
 20
280.0
 30
0.0
  0
INSERT
  5
70D
330
17
100
AcDbEntity
  8
TREES
100
AcDbBlockReference
  2
TREE_SMALL
 10
585.0
 20
320.0
 30
0.0
  0
INSERT
  5
70F
330
17
100
AcDbEntity
  8
TREES
100
AcDbBlockReference
  2
TREE_SMALL
 10
585.0
 20
360.0
 30
0.0
  0
INSERT
  5
711
330
17
100
AcDbEntity
  8
TREES
100
AcDbBlockReference
  2
TREE_SMALL
 10
585.0
 20
400.0
 30
0.0
  0
INSERT
  5
713
330
17
100
AcDbEntity
  8
TREES
100
AcDbBlockReference
  2
TREE_SMALL
 10
585.0
 20
440.0
 30
0.0
  0
INSERT
  5
715
330
17
100
AcDbEntity
  8
TREES
100
AcDbBlockReference
  2
TREE_SMALL
 10
585.0
 20
480.0
 30
0.0
  0
INSERT
  5
717
330
17
100
AcDbEntity
  8
TREES
100
AcDbBlockReference
  2
TREE_SMALL
 10
585.0
 20
520.0
 30
0.0
  0
INSERT
  5
719
330
17
100
AcDbEntity
  8
TREES
100
AcDbBlockReference
  2
TREE_SMALL
 10
585.0
 20
560.0
 30
0.0
  0
INSERT
  5
71B
330
17
100
AcDbEntity
  8
TREES
100
AcDbBlockReference
  2
TREE_SMALL
 10
585.0
 20
600.0
 30
0.0
  0
INSERT
  5
71D
330
17
100
AcDbEntity
  8
TREES
100
AcDbBlockReference
  2
TREE_SMALL
 10
585.0
 20
640.0
 30
0.0
  0
INSERT
  5
71F
330
17
100
AcDbEntity
  8
TREES
100
AcDbBlockReference
  2
TREE_SMALL
 10
585.0
 20
680.0
 30
0.0
  0
INSERT
  5
721
330
17
100
AcDbEntity
  8
TREES
100
AcDbBlockReference
  2
TREE_SMALL
 10
585.0
 20
720.0
 30
0.0
  0
INSERT
  5
723
330
17
100
AcDbEntity
  8
TREES
100
AcDbBlockReference
  2
TREE_SMALL
 10
585.0
 20
760.0
 30
0.0
  0
INSERT
  5
725
330
17
100
AcDbEntity
  8
TREES
100
AcDbBlockReference
  2
TREE_SMALL
 10
585.0
 20
800.0
 30
0.0
  0
INSERT
  5
727
330
17
100
AcDbEntity
  8
TREES
100
AcDbBlockReference
  2
TREE_SMALL
 10
585.0
 20
840.0
 30
0.0
  0
INSERT
  5
729
330
17
100
AcDbEntity
  8
TREES
100
AcDbBlockReference
  2
TREE_SMALL
 10
585.0
 20
880.0
 30
0.0
  0
INSERT
  5
72B
330
17
100
AcDbEntity
  8
TREES
100
AcDbBlockReference
  2
TREE_SMALL
 10
585.0
 20
920.0
 30
0.0
  0
INSERT
  5
72D
330
17
100
AcDbEntity
  8
TREES
100
AcDbBlockReference
  2
TREE_SMALL
 10
585.0
 20
960.0
 30
0.0
  0
INSERT
  5
72F
330
17
100
AcDbEntity
  8
TREES
100
AcDbBlockReference
  2
TREE_SMALL
 10
585.0
 20
1000.0
 30
0.0
  0
INSERT
  5
731
330
17
100
AcDbEntity
  8
TREES
100
AcDbBlockReference
  2
TREE_SMALL
 10
585.0
 20
1040.0
 30
0.0
  0
INSERT
  5
733
330
17
100
AcDbEntity
  8
TREES
100
AcDbBlockReference
  2
TREE_SMALL
 10
585.0
 20
1080.0
 30
0.0
  0
INSERT
  5
735
330
17
100
AcDbEntity
  8
TREES
100
AcDbBlockReference
  2
TREE_SMALL
 10
585.0
 20
1120.0
 30
0.0
  0
INSERT
  5
737
330
17
100
AcDbEntity
  8
TREES
100
AcDbBlockReference
  2
TREE_SMALL
 10
585.0
 20
1160.0
 30
0.0
  0
INSERT
  5
739
330
17
100
AcDbEntity
  8
TREES
100
AcDbBlockReference
  2
TREE_SMALL
 10
585.0
 20
1200.0
 30
0.0
  0
INSERT
  5
73B
330
17
100
AcDbEntity
  8
TREES
100
AcDbBlockReference
  2
TREE_SMALL
 10
585.0
 20
1240.0
 30
0.0
  0
INSERT
  5
73D
330
17
100
AcDbEntity
  8
TREES
100
AcDbBlockReference
  2
TREE_SMALL
 10
585.0
 20
1280.0
 30
0.0
  0
INSERT
  5
73F
330
17
100
AcDbEntity
  8
TREES
100
AcDbBlockReference
  2
TREE_SMALL
 10
585.0
 20
1320.0
 30
0.0
  0
INSERT
  5
741
330
17
100
AcDbEntity
  8
TREES
100
AcDbBlockReference
  2
TREE_SMALL
 10
585.0
 20
1360.0
 30
0.0
  0
INSERT
  5
743
330
17
100
AcDbEntity
  8
TREES
100
AcDbBlockReference
  2
TREE_SMALL
 10
585.0
 20
1400.0
 30
0.0
  0
INSERT
  5
745
330
17
100
AcDbEntity
  8
TREES
100
AcDbBlockReference
  2
TREE_SMALL
 10
585.0
 20
1440.0
 30
0.0
  0
INSERT
  5
747
330
17
100
AcDbEntity
  8
TREES
100
AcDbBlockReference
  2
TREE_SMALL
 10
585.0
 20
1480.0
 30
0.0
  0
INSERT
  5
749
330
17
100
AcDbEntity
  8
TREES
100
AcDbBlockReference
  2
TREE_SMALL
 10
585.0
 20
1520.0
 30
0.0
  0
INSERT
  5
74B
330
17
100
AcDbEntity
  8
TREES
100
AcDbBlockReference
  2
TREE_SMALL
 10
585.0
 20
1560.0
 30
0.0
  0
INSERT
  5
74D
330
17
100
AcDbEntity
  8
TREES
100
AcDbBlockReference
  2
TREE_SMALL
 10
585.0
 20
1600.0
 30
0.0
  0
INSERT
  5
74F
330
17
100
AcDbEntity
  8
TREES
100
AcDbBlockReference
  2
TREE_SMALL
 10
585.0
 20
1640.0
 30
0.0
  0
INSERT
  5
751
330
17
100
AcDbEntity
  8
TREES
100
AcDbBlockReference
  2
TREE_SMALL
 10
585.0
 20
1680.0
 30
0.0
  0
INSERT
  5
753
330
17
100
AcDbEntity
  8
TREES
100
AcDbBlockReference
  2
TREE_SMALL
 10
585.0
 20
1720.0
 30
0.0
  0
INSERT
  5
755
330
17
100
AcDbEntity
  8
TREES
100
AcDbBlockReference
  2
TREE_SMALL
 10
585.0
 20
1760.0
 30
0.0
  0
INSERT
  5
757
330
17
100
AcDbEntity
  8
TREES
100
AcDbBlockReference
  2
TREE_SMALL
 10
585.0
 20
1800.0
 30
0.0
  0
INSERT
  5
759
330
17
100
AcDbEntity
  8
TREES
100
AcDbBlockReference
  2
TREE_SMALL
 10
585.0
 20
1840.0
 30
0.0
  0
INSERT
  5
75B
330
17
100
AcDbEntity
  8
TREES
100
AcDbBlockReference
  2
TREE_SMALL
 10
585.0
 20
1880.0
 30
0.0
  0
INSERT
  5
75D
330
17
100
AcDbEntity
  8
TREES
100
AcDbBlockReference
  2
TREE_SMALL
 10
615.0
 20
200.0
 30
0.0
  0
INSERT
  5
75F
330
17
100
AcDbEntity
  8
TREES
100
AcDbBlockReference
  2
TREE_SMALL
 10
615.0
 20
240.0
 30
0.0
  0
INSERT
  5
761
330
17
100
AcDbEntity
  8
TREES
100
AcDbBlockReference
  2
TREE_SMALL
 10
615.0
 20
280.0
 30
0.0
  0
INSERT
  5
763
330
17
100
AcDbEntity
  8
TREES
100
AcDbBlockReference
  2
TREE_SMALL
 10
615.0
 20
320.0
 30
0.0
  0
INSERT
  5
765
330
17
100
AcDbEntity
  8
TREES
100
AcDbBlockReference
  2
TREE_SMALL
 10
615.0
 20
360.0
 30
0.0
  0
INSERT
  5
767
330
17
100
AcDbEntity
  8
TREES
100
AcDbBlockReference
  2
TREE_SMALL
 10
615.0
 20
400.0
 30
0.0
  0
INSERT
  5
769
330
17
100
AcDbEntity
  8
TREES
100
AcDbBlockReference
  2
TREE_SMALL
 10
615.0
 20
440.0
 30
0.0
  0
INSERT
  5
76B
330
17
100
AcDbEntity
  8
TREES
100
AcDbBlockReference
  2
TREE_SMALL
 10
615.0
 20
480.0
 30
0.0
  0
INSERT
  5
76D
330
17
100
AcDbEntity
  8
TREES
100
AcDbBlockReference
  2
TREE_SMALL
 10
615.0
 20
520.0
 30
0.0
  0
INSERT
  5
76F
330
17
100
AcDbEntity
  8
TREES
100
AcDbBlockReference
  2
TREE_SMALL
 10
615.0
 20
560.0
 30
0.0
  0
INSERT
  5
771
330
17
100
AcDbEntity
  8
TREES
100
AcDbBlockReference
  2
TREE_SMALL
 10
615.0
 20
600.0
 30
0.0
  0
INSERT
  5
773
330
17
100
AcDbEntity
  8
TREES
100
AcDbBlockReference
  2
TREE_SMALL
 10
615.0
 20
640.0
 30
0.0
  0
INSERT
  5
775
330
17
100
AcDbEntity
  8
TREES
100
AcDbBlockReference
  2
TREE_SMALL
 10
615.0
 20
680.0
 30
0.0
  0
INSERT
  5
777
330
17
100
AcDbEntity
  8
TREES
100
AcDbBlockReference
  2
TREE_SMALL
 10
615.0
 20
720.0
 30
0.0
  0
INSERT
  5
779
330
17
100
AcDbEntity
  8
TREES
100
AcDbBlockReference
  2
TREE_SMALL
 10
615.0
 20
760.0
 30
0.0
  0
INSERT
  5
77B
330
17
100
AcDbEntity
  8
TREES
100
AcDbBlockReference
  2
TREE_SMALL
 10
615.0
 20
800.0
 30
0.0
  0
INSERT
  5
77D
330
17
100
AcDbEntity
  8
TREES
100
AcDbBlockReference
  2
TREE_SMALL
 10
615.0
 20
840.0
 30
0.0
  0
INSERT
  5
77F
330
17
100
AcDbEntity
  8
TREES
100
AcDbBlockReference
  2
TREE_SMALL
 10
615.0
 20
880.0
 30
0.0
  0
INSERT
  5
781
330
17
100
AcDbEntity
  8
TREES
100
AcDbBlockReference
  2
TREE_SMALL
 10
615.0
 20
920.0
 30
0.0
  0
INSERT
  5
783
330
17
100
AcDbEntity
  8
TREES
100
AcDbBlockReference
  2
TREE_SMALL
 10
615.0
 20
960.0
 30
0.0
  0
INSERT
  5
785
330
17
100
AcDbEntity
  8
TREES
100
AcDbBlockReference
  2
TREE_SMALL
 10
615.0
 20
1000.0
 30
0.0
  0
INSERT
  5
787
330
17
100
AcDbEntity
  8
TREES
100
AcDbBlockReference
  2
TREE_SMALL
 10
615.0
 20
1040.0
 30
0.0
  0
INSERT
  5
789
330
17
100
AcDbEntity
  8
TREES
100
AcDbBlockReference
  2
TREE_SMALL
 10
615.0
 20
1080.0
 30
0.0
  0
INSERT
  5
78B
330
17
100
AcDbEntity
  8
TREES
100
AcDbBlockReference
  2
TREE_SMALL
 10
615.0
 20
1120.0
 30
0.0
  0
INSERT
  5
78D
330
17
100
AcDbEntity
  8
TREES
100
AcDbBlockReference
  2
TREE_SMALL
 10
615.0
 20
1160.0
 30
0.0
  0
INSERT
  5
78F
330
17
100
AcDbEntity
  8
TREES
100
AcDbBlockReference
  2
TREE_SMALL
 10
615.0
 20
1200.0
 30
0.0
  0
INSERT
  5
791
330
17
100
AcDbEntity
  8
TREES
100
AcDbBlockReference
  2
TREE_SMALL
 10
615.0
 20
1240.0
 30
0.0
  0
INSERT
  5
793
330
17
100
AcDbEntity
  8
TREES
100
AcDbBlockReference
  2
TREE_SMALL
 10
615.0
 20
1280.0
 30
0.0
  0
INSERT
  5
795
330
17
100
AcDbEntity
  8
TREES
100
AcDbBlockReference
  2
TREE_SMALL
 10
615.0
 20
1320.0
 30
0.0
  0
INSERT
  5
797
330
17
100
AcDbEntity
  8
TREES
100
AcDbBlockReference
  2
TREE_SMALL
 10
615.0
 20
1360.0
 30
0.0
  0
INSERT
  5
799
330
17
100
AcDbEntity
  8
TREES
100
AcDbBlockReference
  2
TREE_SMALL
 10
615.0
 20
1400.0
 30
0.0
  0
INSERT
  5
79B
330
17
100
AcDbEntity
  8
TREES
100
AcDbBlockReference
  2
TREE_SMALL
 10
615.0
 20
1440.0
 30
0.0
  0
INSERT
  5
79D
330
17
100
AcDbEntity
  8
TREES
100
AcDbBlockReference
  2
TREE_SMALL
 10
615.0
 20
1480.0
 30
0.0
  0
INSERT
  5
79F
330
17
100
AcDbEntity
  8
TREES
100
AcDbBlockReference
  2
TREE_SMALL
 10
615.0
 20
1520.0
 30
0.0
  0
INSERT
  5
7A1
330
17
100
AcDbEntity
  8
TREES
100
AcDbBlockReference
  2
TREE_SMALL
 10
615.0
 20
1560.0
 30
0.0
  0
INSERT
  5
7A3
330
17
100
AcDbEntity
  8
TREES
100
AcDbBlockReference
  2
TREE_SMALL
 10
615.0
 20
1600.0
 30
0.0
  0
INSERT
  5
7A5
330
17
100
AcDbEntity
  8
TREES
100
AcDbBlockReference
  2
TREE_SMALL
 10
615.0
 20
1640.0
 30
0.0
  0
INSERT
  5
7A7
330
17
100
AcDbEntity
  8
TREES
100
AcDbBlockReference
  2
TREE_SMALL
 10
615.0
 20
1680.0
 30
0.0
  0
INSERT
  5
7A9
330
17
100
AcDbEntity
  8
TREES
100
AcDbBlockReference
  2
TREE_SMALL
 10
615.0
 20
1720.0
 30
0.0
  0
INSERT
  5
7AB
330
17
100
AcDbEntity
  8
TREES
100
AcDbBlockReference
  2
TREE_SMALL
 10
615.0
 20
1760.0
 30
0.0
  0
INSERT
  5
7AD
330
17
100
AcDbEntity
  8
TREES
100
AcDbBlockReference
  2
TREE_SMALL
 10
615.0
 20
1800.0
 30
0.0
  0
INSERT
  5
7AF
330
17
100
AcDbEntity
  8
TREES
100
AcDbBlockReference
  2
TREE_SMALL
 10
615.0
 20
1840.0
 30
0.0
  0
INSERT
  5
7B1
330
17
100
AcDbEntity
  8
TREES
100
AcDbBlockReference
  2
TREE_SMALL
 10
615.0
 20
1880.0
 30
0.0
  0
INSERT
  5
7B3
330
17
100
AcDbEntity
  8
TREES
100
AcDbBlockReference
  2
TREE_SMALL
 10
1585.0
 20
200.0
 30
0.0
  0
INSERT
  5
7B5
330
17
100
AcDbEntity
  8
TREES
100
AcDbBlockReference
  2
TREE_SMALL
 10
1585.0
 20
240.0
 30
0.0
  0
INSERT
  5
7B7
330
17
100
AcDbEntity
  8
TREES
100
AcDbBlockReference
  2
TREE_SMALL
 10
1585.0
 20
280.0
 30
0.0
  0
INSERT
  5
7B9
330
17
100
AcDbEntity
  8
TREES
100
AcDbBlockReference
  2
TREE_SMALL
 10
1585.0
 20
320.0
 30
0.0
  0
INSERT
  5
7BB
330
17
100
AcDbEntity
  8
TREES
100
AcDbBlockReference
  2
TREE_SMALL
 10
1585.0
 20
360.0
 30
0.0
  0
INSERT
  5
7BD
330
17
100
AcDbEntity
  8
TREES
100
AcDbBlockReference
  2
TREE_SMALL
 10
1585.0
 20
400.0
 30
0.0
  0
INSERT
  5
7BF
330
17
100
AcDbEntity
  8
TREES
100
AcDbBlockReference
  2
TREE_SMALL
 10
1585.0
 20
440.0
 30
0.0
  0
INSERT
  5
7C1
330
17
100
AcDbEntity
  8
TREES
100
AcDbBlockReference
  2
TREE_SMALL
 10
1585.0
 20
480.0
 30
0.0
  0
INSERT
  5
7C3
330
17
100
AcDbEntity
  8
TREES
100
AcDbBlockReference
  2
TREE_SMALL
 10
1585.0
 20
520.0
 30
0.0
  0
INSERT
  5
7C5
330
17
100
AcDbEntity
  8
TREES
100
AcDbBlockReference
  2
TREE_SMALL
 10
1585.0
 20
560.0
 30
0.0
  0
INSERT
  5
7C7
330
17
100
AcDbEntity
  8
TREES
100
AcDbBlockReference
  2
TREE_SMALL
 10
1585.0
 20
600.0
 30
0.0
  0
INSERT
  5
7C9
330
17
100
AcDbEntity
  8
TREES
100
AcDbBlockReference
  2
TREE_SMALL
 10
1585.0
 20
640.0
 30
0.0
  0
INSERT
  5
7CB
330
17
100
AcDbEntity
  8
TREES
100
AcDbBlockReference
  2
TREE_SMALL
 10
1585.0
 20
680.0
 30
0.0
  0
INSERT
  5
7CD
330
17
100
AcDbEntity
  8
TREES
100
AcDbBlockReference
  2
TREE_SMALL
 10
1585.0
 20
720.0
 30
0.0
  0
INSERT
  5
7CF
330
17
100
AcDbEntity
  8
TREES
100
AcDbBlockReference
  2
TREE_SMALL
 10
1585.0
 20
760.0
 30
0.0
  0
INSERT
  5
7D1
330
17
100
AcDbEntity
  8
TREES
100
AcDbBlockReference
  2
TREE_SMALL
 10
1585.0
 20
800.0
 30
0.0
  0
INSERT
  5
7D3
330
17
100
AcDbEntity
  8
TREES
100
AcDbBlockReference
  2
TREE_SMALL
 10
1585.0
 20
840.0
 30
0.0
  0
INSERT
  5
7D5
330
17
100
AcDbEntity
  8
TREES
100
AcDbBlockReference
  2
TREE_SMALL
 10
1585.0
 20
880.0
 30
0.0
  0
INSERT
  5
7D7
330
17
100
AcDbEntity
  8
TREES
100
AcDbBlockReference
  2
TREE_SMALL
 10
1585.0
 20
920.0
 30
0.0
  0
INSERT
  5
7D9
330
17
100
AcDbEntity
  8
TREES
100
AcDbBlockReference
  2
TREE_SMALL
 10
1585.0
 20
960.0
 30
0.0
  0
INSERT
  5
7DB
330
17
100
AcDbEntity
  8
TREES
100
AcDbBlockReference
  2
TREE_SMALL
 10
1585.0
 20
1000.0
 30
0.0
  0
INSERT
  5
7DD
330
17
100
AcDbEntity
  8
TREES
100
AcDbBlockReference
  2
TREE_SMALL
 10
1585.0
 20
1040.0
 30
0.0
  0
INSERT
  5
7DF
330
17
100
AcDbEntity
  8
TREES
100
AcDbBlockReference
  2
TREE_SMALL
 10
1585.0
 20
1080.0
 30
0.0
  0
INSERT
  5
7E1
330
17
100
AcDbEntity
  8
TREES
100
AcDbBlockReference
  2
TREE_SMALL
 10
1585.0
 20
1120.0
 30
0.0
  0
INSERT
  5
7E3
330
17
100
AcDbEntity
  8
TREES
100
AcDbBlockReference
  2
TREE_SMALL
 10
1585.0
 20
1160.0
 30
0.0
  0
INSERT
  5
7E5
330
17
100
AcDbEntity
  8
TREES
100
AcDbBlockReference
  2
TREE_SMALL
 10
1585.0
 20
1200.0
 30
0.0
  0
INSERT
  5
7E7
330
17
100
AcDbEntity
  8
TREES
100
AcDbBlockReference
  2
TREE_SMALL
 10
1585.0
 20
1240.0
 30
0.0
  0
INSERT
  5
7E9
330
17
100
AcDbEntity
  8
TREES
100
AcDbBlockReference
  2
TREE_SMALL
 10
1585.0
 20
1280.0
 30
0.0
  0
INSERT
  5
7EB
330
17
100
AcDbEntity
  8
TREES
100
AcDbBlockReference
  2
TREE_SMALL
 10
1585.0
 20
1320.0
 30
0.0
  0
INSERT
  5
7ED
330
17
100
AcDbEntity
  8
TREES
100
AcDbBlockReference
  2
TREE_SMALL
 10
1585.0
 20
1360.0
 30
0.0
  0
INSERT
  5
7EF
330
17
100
AcDbEntity
  8
TREES
100
AcDbBlockReference
  2
TREE_SMALL
 10
1585.0
 20
1400.0
 30
0.0
  0
INSERT
  5
7F1
330
17
100
AcDbEntity
  8
TREES
100
AcDbBlockReference
  2
TREE_SMALL
 10
1585.0
 20
1440.0
 30
0.0
  0
INSERT
  5
7F3
330
17
100
AcDbEntity
  8
TREES
100
AcDbBlockReference
  2
TREE_SMALL
 10
1585.0
 20
1480.0
 30
0.0
  0
INSERT
  5
7F5
330
17
100
AcDbEntity
  8
TREES
100
AcDbBlockReference
  2
TREE_SMALL
 10
1585.0
 20
1520.0
 30
0.0
  0
INSERT
  5
7F7
330
17
100
AcDbEntity
  8
TREES
100
AcDbBlockReference
  2
TREE_SMALL
 10
1585.0
 20
1560.0
 30
0.0
  0
INSERT
  5
7F9
330
17
100
AcDbEntity
  8
TREES
100
AcDbBlockReference
  2
TREE_SMALL
 10
1585.0
 20
1600.0
 30
0.0
  0
INSERT
  5
7FB
330
17
100
AcDbEntity
  8
TREES
100
AcDbBlockReference
  2
TREE_SMALL
 10
1585.0
 20
1640.0
 30
0.0
  0
INSERT
  5
7FD
330
17
100
AcDbEntity
  8
TREES
100
AcDbBlockReference
  2
TREE_SMALL
 10
1585.0
 20
1680.0
 30
0.0
  0
INSERT
  5
7FF
330
17
100
AcDbEntity
  8
TREES
100
AcDbBlockReference
  2
TREE_SMALL
 10
1585.0
 20
1720.0
 30
0.0
  0
INSERT
  5
801
330
17
100
AcDbEntity
  8
TREES
100
AcDbBlockReference
  2
TREE_SMALL
 10
1585.0
 20
1760.0
 30
0.0
  0
INSERT
  5
803
330
17
100
AcDbEntity
  8
TREES
100
AcDbBlockReference
  2
TREE_SMALL
 10
1585.0
 20
1800.0
 30
0.0
  0
INSERT
  5
805
330
17
100
AcDbEntity
  8
TREES
100
AcDbBlockReference
  2
TREE_SMALL
 10
1585.0
 20
1840.0
 30
0.0
  0
INSERT
  5
807
330
17
100
AcDbEntity
  8
TREES
100
AcDbBlockReference
  2
TREE_SMALL
 10
1585.0
 20
1880.0
 30
0.0
  0
INSERT
  5
809
330
17
100
AcDbEntity
  8
TREES
100
AcDbBlockReference
  2
TREE_SMALL
 10
1615.0
 20
200.0
 30
0.0
  0
INSERT
  5
80B
330
17
100
AcDbEntity
  8
TREES
100
AcDbBlockReference
  2
TREE_SMALL
 10
1615.0
 20
240.0
 30
0.0
  0
INSERT
  5
80D
330
17
100
AcDbEntity
  8
TREES
100
AcDbBlockReference
  2
TREE_SMALL
 10
1615.0
 20
280.0
 30
0.0
  0
INSERT
  5
80F
330
17
100
AcDbEntity
  8
TREES
100
AcDbBlockReference
  2
TREE_SMALL
 10
1615.0
 20
320.0
 30
0.0
  0
INSERT
  5
811
330
17
100
AcDbEntity
  8
TREES
100
AcDbBlockReference
  2
TREE_SMALL
 10
1615.0
 20
360.0
 30
0.0
  0
INSERT
  5
813
330
17
100
AcDbEntity
  8
TREES
100
AcDbBlockReference
  2
TREE_SMALL
 10
1615.0
 20
400.0
 30
0.0
  0
INSERT
  5
815
330
17
100
AcDbEntity
  8
TREES
100
AcDbBlockReference
  2
TREE_SMALL
 10
1615.0
 20
440.0
 30
0.0
  0
INSERT
  5
817
330
17
100
AcDbEntity
  8
TREES
100
AcDbBlockReference
  2
TREE_SMALL
 10
1615.0
 20
480.0
 30
0.0
  0
INSERT
  5
819
330
17
100
AcDbEntity
  8
TREES
100
AcDbBlockReference
  2
TREE_SMALL
 10
1615.0
 20
520.0
 30
0.0
  0
INSERT
  5
81B
330
17
100
AcDbEntity
  8
TREES
100
AcDbBlockReference
  2
TREE_SMALL
 10
1615.0
 20
560.0
 30
0.0
  0
INSERT
  5
81D
330
17
100
AcDbEntity
  8
TREES
100
AcDbBlockReference
  2
TREE_SMALL
 10
1615.0
 20
600.0
 30
0.0
  0
INSERT
  5
81F
330
17
100
AcDbEntity
  8
TREES
100
AcDbBlockReference
  2
TREE_SMALL
 10
1615.0
 20
640.0
 30
0.0
  0
INSERT
  5
821
330
17
100
AcDbEntity
  8
TREES
100
AcDbBlockReference
  2
TREE_SMALL
 10
1615.0
 20
680.0
 30
0.0
  0
INSERT
  5
823
330
17
100
AcDbEntity
  8
TREES
100
AcDbBlockReference
  2
TREE_SMALL
 10
1615.0
 20
720.0
 30
0.0
  0
INSERT
  5
825
330
17
100
AcDbEntity
  8
TREES
100
AcDbBlockReference
  2
TREE_SMALL
 10
1615.0
 20
760.0
 30
0.0
  0
INSERT
  5
827
330
17
100
AcDbEntity
  8
TREES
100
AcDbBlockReference
  2
TREE_SMALL
 10
1615.0
 20
800.0
 30
0.0
  0
INSERT
  5
829
330
17
100
AcDbEntity
  8
TREES
100
AcDbBlockReference
  2
TREE_SMALL
 10
1615.0
 20
840.0
 30
0.0
  0
INSERT
  5
82B
330
17
100
AcDbEntity
  8
TREES
100
AcDbBlockReference
  2
TREE_SMALL
 10
1615.0
 20
880.0
 30
0.0
  0
INSERT
  5
82D
330
17
100
AcDbEntity
  8
TREES
100
AcDbBlockReference
  2
TREE_SMALL
 10
1615.0
 20
920.0
 30
0.0
  0
INSERT
  5
82F
330
17
100
AcDbEntity
  8
TREES
100
AcDbBlockReference
  2
TREE_SMALL
 10
1615.0
 20
960.0
 30
0.0
  0
INSERT
  5
831
330
17
100
AcDbEntity
  8
TREES
100
AcDbBlockReference
  2
TREE_SMALL
 10
1615.0
 20
1000.0
 30
0.0
  0
INSERT
  5
833
330
17
100
AcDbEntity
  8
TREES
100
AcDbBlockReference
  2
TREE_SMALL
 10
1615.0
 20
1040.0
 30
0.0
  0
INSERT
  5
835
330
17
100
AcDbEntity
  8
TREES
100
AcDbBlockReference
  2
TREE_SMALL
 10
1615.0
 20
1080.0
 30
0.0
  0
INSERT
  5
837
330
17
100
AcDbEntity
  8
TREES
100
AcDbBlockReference
  2
TREE_SMALL
 10
1615.0
 20
1120.0
 30
0.0
  0
INSERT
  5
839
330
17
100
AcDbEntity
  8
TREES
100
AcDbBlockReference
  2
TREE_SMALL
 10
1615.0
 20
1160.0
 30
0.0
  0
INSERT
  5
83B
330
17
100
AcDbEntity
  8
TREES
100
AcDbBlockReference
  2
TREE_SMALL
 10
1615.0
 20
1200.0
 30
0.0
  0
INSERT
  5
83D
330
17
100
AcDbEntity
  8
TREES
100
AcDbBlockReference
  2
TREE_SMALL
 10
1615.0
 20
1240.0
 30
0.0
  0
INSERT
  5
83F
330
17
100
AcDbEntity
  8
TREES
100
AcDbBlockReference
  2
TREE_SMALL
 10
1615.0
 20
1280.0
 30
0.0
  0
INSERT
  5
841
330
17
100
AcDbEntity
  8
TREES
100
AcDbBlockReference
  2
TREE_SMALL
 10
1615.0
 20
1320.0
 30
0.0
  0
INSERT
  5
843
330
17
100
AcDbEntity
  8
TREES
100
AcDbBlockReference
  2
TREE_SMALL
 10
1615.0
 20
1360.0
 30
0.0
  0
INSERT
  5
845
330
17
100
AcDbEntity
  8
TREES
100
AcDbBlockReference
  2
TREE_SMALL
 10
1615.0
 20
1400.0
 30
0.0
  0
INSERT
  5
847
330
17
100
AcDbEntity
  8
TREES
100
AcDbBlockReference
  2
TREE_SMALL
 10
1615.0
 20
1440.0
 30
0.0
  0
INSERT
  5
849
330
17
100
AcDbEntity
  8
TREES
100
AcDbBlockReference
  2
TREE_SMALL
 10
1615.0
 20
1480.0
 30
0.0
  0
INSERT
  5
84B
330
17
100
AcDbEntity
  8
TREES
100
AcDbBlockReference
  2
TREE_SMALL
 10
1615.0
 20
1520.0
 30
0.0
  0
INSERT
  5
84D
330
17
100
AcDbEntity
  8
TREES
100
AcDbBlockReference
  2
TREE_SMALL
 10
1615.0
 20
1560.0
 30
0.0
  0
INSERT
  5
84F
330
17
100
AcDbEntity
  8
TREES
100
AcDbBlockReference
  2
TREE_SMALL
 10
1615.0
 20
1600.0
 30
0.0
  0
INSERT
  5
851
330
17
100
AcDbEntity
  8
TREES
100
AcDbBlockReference
  2
TREE_SMALL
 10
1615.0
 20
1640.0
 30
0.0
  0
INSERT
  5
853
330
17
100
AcDbEntity
  8
TREES
100
AcDbBlockReference
  2
TREE_SMALL
 10
1615.0
 20
1680.0
 30
0.0
  0
INSERT
  5
855
330
17
100
AcDbEntity
  8
TREES
100
AcDbBlockReference
  2
TREE_SMALL
 10
1615.0
 20
1720.0
 30
0.0
  0
INSERT
  5
857
330
17
100
AcDbEntity
  8
TREES
100
AcDbBlockReference
  2
TREE_SMALL
 10
1615.0
 20
1760.0
 30
0.0
  0
INSERT
  5
859
330
17
100
AcDbEntity
  8
TREES
100
AcDbBlockReference
  2
TREE_SMALL
 10
1615.0
 20
1800.0
 30
0.0
  0
INSERT
  5
85B
330
17
100
AcDbEntity
  8
TREES
100
AcDbBlockReference
  2
TREE_SMALL
 10
1615.0
 20
1840.0
 30
0.0
  0
INSERT
  5
85D
330
17
100
AcDbEntity
  8
TREES
100
AcDbBlockReference
  2
TREE_SMALL
 10
1615.0
 20
1880.0
 30
0.0
  0
LWPOLYLINE
  5
85F
330
17
100
AcDbEntity
  8
BUILDINGS
370
50
100
AcDbPolyline
 90
4
 70
1
 10
220.0
 20
1420.0
 10
250.0
 20
1420.0
 10
250.0
 20
1445.0
 10
220.0
 20
1445.0
  0
HATCH
  5
860
330
17
100
AcDbEntity
  8
BUILDINGS
 62
7
100
AcDbHatch
 10
0.0
 20
0.0
 30
0.0
210
0.0
220
0.0
230
1.0
  2
ANSI31
 70
0
 71
0
 91
1
 92
3
 72
0
 73
1
 93
4
 10
220.0
 20
1420.0
 10
250.0
 20
1420.0
 10
250.0
 20
1445.0
 10
220.0
 20
1445.0
 97
0
 75
1
 76
1
 52
0.0
 41
2.0
 77
0
 78
1
 53
45.0
 43
0.0
 44
0.0
 45
-4.4901280606
 46
4.4901280606
 79
0
 98
0
  0
LWPOLYLINE
  5
861
330
17
100
AcDbEntity
  8
GREEN_CORRIDOR
370
25
100
AcDbPolyline
 90
4
 70
1
 10
227.5
 20
1426.25
 10
242.5
 20
1426.25
 10
242.5
 20
1438.75
 10
227.5
 20
1438.75
  0
HATCH
  5
862
330
17
100
AcDbEntity
  8
HATCH_GREEN
 62
7
100
AcDbHatch
 10
0.0
 20
0.0
 30
0.0
210
0.0
220
0.0
230
1.0
  2
GRASS
 70
0
 71
0
 91
1
 92
3
 72
0
 73
1
 93
4
 10
227.5
 20
1426.25
 10
242.5
 20
1426.25
 10
242.5
 20
1438.75
 10
227.5
 20
1438.75
 97
0
 75
1
 76
1
 52
0.0
 41
1.5
 77
0
 78
3
 53
90.0
 43
0.0
 44
0.0
 45
-26.94076836
 46
26.94076836
 79
2
 49
7.14375
 49
-46.73778672
 53
45.0
 43
0.0
 44
0.0
 45
-26.9407683631
 46
26.9407683631
 79
2
 49
7.14375
 49
-30.95625
 53
135.0
 43
0.0
 44
0.0
 45
-26.9407683631
 46
-26.9407683631
 79
2
 49
7.14375
 49
-30.95625
 98
0
  0
LWPOLYLINE
  5
863
330
17
100
AcDbEntity
  8
BUILDINGS
370
50
100
AcDbPolyline
 90
4
 70
1
 10
220.0
 20
1490.0
 10
250.0
 20
1490.0
 10
250.0
 20
1515.0
 10
220.0
 20
1515.0
  0
HATCH
  5
864
330
17
100
AcDbEntity
  8
BUILDINGS
 62
7
100
AcDbHatch
 10
0.0
 20
0.0
 30
0.0
210
0.0
220
0.0
230
1.0
  2
ANSI31
 70
0
 71
0
 91
1
 92
3
 72
0
 73
1
 93
4
 10
220.0
 20
1490.0
 10
250.0
 20
1490.0
 10
250.0
 20
1515.0
 10
220.0
 20
1515.0
 97
0
 75
1
 76
1
 52
0.0
 41
2.0
 77
0
 78
1
 53
45.0
 43
0.0
 44
0.0
 45
-4.4901280606
 46
4.4901280606
 79
0
 98
0
  0
LWPOLYLINE
  5
865
330
17
100
AcDbEntity
  8
GREEN_CORRIDOR
370
25
100
AcDbPolyline
 90
4
 70
1
 10
227.5
 20
1496.25
 10
242.5
 20
1496.25
 10
242.5
 20
1508.75
 10
227.5
 20
1508.75
  0
HATCH
  5
866
330
17
100
AcDbEntity
  8
HATCH_GREEN
 62
7
100
AcDbHatch
 10
0.0
 20
0.0
 30
0.0
210
0.0
220
0.0
230
1.0
  2
GRASS
 70
0
 71
0
 91
1
 92
3
 72
0
 73
1
 93
4
 10
227.5
 20
1496.25
 10
242.5
 20
1496.25
 10
242.5
 20
1508.75
 10
227.5
 20
1508.75
 97
0
 75
1
 76
1
 52
0.0
 41
1.5
 77
0
 78
3
 53
90.0
 43
0.0
 44
0.0
 45
-26.94076836
 46
26.94076836
 79
2
 49
7.14375
 49
-46.73778672
 53
45.0
 43
0.0
 44
0.0
 45
-26.9407683631
 46
26.9407683631
 79
2
 49
7.14375
 49
-30.95625
 53
135.0
 43
0.0
 44
0.0
 45
-26.9407683631
 46
-26.9407683631
 79
2
 49
7.14375
 49
-30.95625
 98
0
  0
LWPOLYLINE
  5
867
330
17
100
AcDbEntity
  8
BUILDINGS
370
50
100
AcDbPolyline
 90
4
 70
1
 10
220.0
 20
1560.0
 10
250.0
 20
1560.0
 10
250.0
 20
1585.0
 10
220.0
 20
1585.0
  0
HATCH
  5
868
330
17
100
AcDbEntity
  8
BUILDINGS
 62
7
100
AcDbHatch
 10
0.0
 20
0.0
 30
0.0
210
0.0
220
0.0
230
1.0
  2
ANSI31
 70
0
 71
0
 91
1
 92
3
 72
0
 73
1
 93
4
 10
220.0
 20
1560.0
 10
250.0
 20
1560.0
 10
250.0
 20
1585.0
 10
220.0
 20
1585.0
 97
0
 75
1
 76
1
 52
0.0
 41
2.0
 77
0
 78
1
 53
45.0
 43
0.0
 44
0.0
 45
-4.4901280606
 46
4.4901280606
 79
0
 98
0
  0
LWPOLYLINE
  5
869
330
17
100
AcDbEntity
  8
GREEN_CORRIDOR
370
25
100
AcDbPolyline
 90
4
 70
1
 10
227.5
 20
1566.25
 10
242.5
 20
1566.25
 10
242.5
 20
1578.75
 10
227.5
 20
1578.75
  0
HATCH
  5
86A
330
17
100
AcDbEntity
  8
HATCH_GREEN
 62
7
100
AcDbHatch
 10
0.0
 20
0.0
 30
0.0
210
0.0
220
0.0
230
1.0
  2
GRASS
 70
0
 71
0
 91
1
 92
3
 72
0
 73
1
 93
4
 10
227.5
 20
1566.25
 10
242.5
 20
1566.25
 10
242.5
 20
1578.75
 10
227.5
 20
1578.75
 97
0
 75
1
 76
1
 52
0.0
 41
1.5
 77
0
 78
3
 53
90.0
 43
0.0
 44
0.0
 45
-26.94076836
 46
26.94076836
 79
2
 49
7.14375
 49
-46.73778672
 53
45.0
 43
0.0
 44
0.0
 45
-26.9407683631
 46
26.9407683631
 79
2
 49
7.14375
 49
-30.95625
 53
135.0
 43
0.0
 44
0.0
 45
-26.9407683631
 46
-26.9407683631
 79
2
 49
7.14375
 49
-30.95625
 98
0
  0
LWPOLYLINE
  5
86B
330
17
100
AcDbEntity
  8
BUILDINGS
370
50
100
AcDbPolyline
 90
4
 70
1
 10
220.0
 20
1630.0
 10
250.0
 20
1630.0
 10
250.0
 20
1655.0
 10
220.0
 20
1655.0
  0
HATCH
  5
86C
330
17
100
AcDbEntity
  8
BUILDINGS
 62
7
100
AcDbHatch
 10
0.0
 20
0.0
 30
0.0
210
0.0
220
0.0
230
1.0
  2
ANSI31
 70
0
 71
0
 91
1
 92
3
 72
0
 73
1
 93
4
 10
220.0
 20
1630.0
 10
250.0
 20
1630.0
 10
250.0
 20
1655.0
 10
220.0
 20
1655.0
 97
0
 75
1
 76
1
 52
0.0
 41
2.0
 77
0
 78
1
 53
45.0
 43
0.0
 44
0.0
 45
-4.4901280606
 46
4.4901280606
 79
0
 98
0
  0
LWPOLYLINE
  5
86D
330
17
100
AcDbEntity
  8
GREEN_CORRIDOR
370
25
100
AcDbPolyline
 90
4
 70
1
 10
227.5
 20
1636.25
 10
242.5
 20
1636.25
 10
242.5
 20
1648.75
 10
227.5
 20
1648.75
  0
HATCH
  5
86E
330
17
100
AcDbEntity
  8
HATCH_GREEN
 62
7
100
AcDbHatch
 10
0.0
 20
0.0
 30
0.0
210
0.0
220
0.0
230
1.0
  2
GRASS
 70
0
 71
0
 91
1
 92
3
 72
0
 73
1
 93
4
 10
227.5
 20
1636.25
 10
242.5
 20
1636.25
 10
242.5
 20
1648.75
 10
227.5
 20
1648.75
 97
0
 75
1
 76
1
 52
0.0
 41
1.5
 77
0
 78
3
 53
90.0
 43
0.0
 44
0.0
 45
-26.94076836
 46
26.94076836
 79
2
 49
7.14375
 49
-46.73778672
 53
45.0
 43
0.0
 44
0.0
 45
-26.9407683631
 46
26.9407683631
 79
2
 49
7.14375
 49
-30.95625
 53
135.0
 43
0.0
 44
0.0
 45
-26.9407683631
 46
-26.9407683631
 79
2
 49
7.14375
 49
-30.95625
 98
0
  0
LWPOLYLINE
  5
86F
330
17
100
AcDbEntity
  8
BUILDINGS
370
50
100
AcDbPolyline
 90
4
 70
1
 10
220.0
 20
1700.0
 10
250.0
 20
1700.0
 10
250.0
 20
1725.0
 10
220.0
 20
1725.0
  0
HATCH
  5
870
330
17
100
AcDbEntity
  8
BUILDINGS
 62
7
100
AcDbHatch
 10
0.0
 20
0.0
 30
0.0
210
0.0
220
0.0
230
1.0
  2
ANSI31
 70
0
 71
0
 91
1
 92
3
 72
0
 73
1
 93
4
 10
220.0
 20
1700.0
 10
250.0
 20
1700.0
 10
250.0
 20
1725.0
 10
220.0
 20
1725.0
 97
0
 75
1
 76
1
 52
0.0
 41
2.0
 77
0
 78
1
 53
45.0
 43
0.0
 44
0.0
 45
-4.4901280606
 46
4.4901280606
 79
0
 98
0
  0
LWPOLYLINE
  5
871
330
17
100
AcDbEntity
  8
GREEN_CORRIDOR
370
25
100
AcDbPolyline
 90
4
 70
1
 10
227.5
 20
1706.25
 10
242.5
 20
1706.25
 10
242.5
 20
1718.75
 10
227.5
 20
1718.75
  0
HATCH
  5
872
330
17
100
AcDbEntity
  8
HATCH_GREEN
 62
7
100
AcDbHatch
 10
0.0
 20
0.0
 30
0.0
210
0.0
220
0.0
230
1.0
  2
GRASS
 70
0
 71
0
 91
1
 92
3
 72
0
 73
1
 93
4
 10
227.5
 20
1706.25
 10
242.5
 20
1706.25
 10
242.5
 20
1718.75
 10
227.5
 20
1718.75
 97
0
 75
1
 76
1
 52
0.0
 41
1.5
 77
0
 78
3
 53
90.0
 43
0.0
 44
0.0
 45
-26.94076836
 46
26.94076836
 79
2
 49
7.14375
 49
-46.73778672
 53
45.0
 43
0.0
 44
0.0
 45
-26.9407683631
 46
26.9407683631
 79
2
 49
7.14375
 49
-30.95625
 53
135.0
 43
0.0
 44
0.0
 45
-26.9407683631
 46
-26.9407683631
 79
2
 49
7.14375
 49
-30.95625
 98
0
  0
LWPOLYLINE
  5
873
330
17
100
AcDbEntity
  8
BUILDINGS
370
50
100
AcDbPolyline
 90
4
 70
1
 10
220.0
 20
1770.0
 10
250.0
 20
1770.0
 10
250.0
 20
1795.0
 10
220.0
 20
1795.0
  0
HATCH
  5
874
330
17
100
AcDbEntity
  8
BUILDINGS
 62
7
100
AcDbHatch
 10
0.0
 20
0.0
 30
0.0
210
0.0
220
0.0
230
1.0
  2
ANSI31
 70
0
 71
0
 91
1
 92
3
 72
0
 73
1
 93
4
 10
220.0
 20
1770.0
 10
250.0
 20
1770.0
 10
250.0
 20
1795.0
 10
220.0
 20
1795.0
 97
0
 75
1
 76
1
 52
0.0
 41
2.0
 77
0
 78
1
 53
45.0
 43
0.0
 44
0.0
 45
-4.4901280606
 46
4.4901280606
 79
0
 98
0
  0
LWPOLYLINE
  5
875
330
17
100
AcDbEntity
  8
GREEN_CORRIDOR
370
25
100
AcDbPolyline
 90
4
 70
1
 10
227.5
 20
1776.25
 10
242.5
 20
1776.25
 10
242.5
 20
1788.75
 10
227.5
 20
1788.75
  0
HATCH
  5
876
330
17
100
AcDbEntity
  8
HATCH_GREEN
 62
7
100
AcDbHatch
 10
0.0
 20
0.0
 30
0.0
210
0.0
220
0.0
230
1.0
  2
GRASS
 70
0
 71
0
 91
1
 92
3
 72
0
 73
1
 93
4
 10
227.5
 20
1776.25
 10
242.5
 20
1776.25
 10
242.5
 20
1788.75
 10
227.5
 20
1788.75
 97
0
 75
1
 76
1
 52
0.0
 41
1.5
 77
0
 78
3
 53
90.0
 43
0.0
 44
0.0
 45
-26.94076836
 46
26.94076836
 79
2
 49
7.14375
 49
-46.73778672
 53
45.0
 43
0.0
 44
0.0
 45
-26.9407683631
 46
26.9407683631
 79
2
 49
7.14375
 49
-30.95625
 53
135.0
 43
0.0
 44
0.0
 45
-26.9407683631
 46
-26.9407683631
 79
2
 49
7.14375
 49
-30.95625
 98
0
  0
LWPOLYLINE
  5
877
330
17
100
AcDbEntity
  8
BUILDINGS
370
50
100
AcDbPolyline
 90
4
 70
1
 10
275.0
 20
1420.0
 10
305.0
 20
1420.0
 10
305.0
 20
1445.0
 10
275.0
 20
1445.0
  0
HATCH
  5
878
330
17
100
AcDbEntity
  8
BUILDINGS
 62
7
100
AcDbHatch
 10
0.0
 20
0.0
 30
0.0
210
0.0
220
0.0
230
1.0
  2
ANSI31
 70
0
 71
0
 91
1
 92
3
 72
0
 73
1
 93
4
 10
275.0
 20
1420.0
 10
305.0
 20
1420.0
 10
305.0
 20
1445.0
 10
275.0
 20
1445.0
 97
0
 75
1
 76
1
 52
0.0
 41
2.0
 77
0
 78
1
 53
45.0
 43
0.0
 44
0.0
 45
-4.4901280606
 46
4.4901280606
 79
0
 98
0
  0
LWPOLYLINE
  5
879
330
17
100
AcDbEntity
  8
GREEN_CORRIDOR
370
25
100
AcDbPolyline
 90
4
 70
1
 10
282.5
 20
1426.25
 10
297.5
 20
1426.25
 10
297.5
 20
1438.75
 10
282.5
 20
1438.75
  0
HATCH
  5
87A
330
17
100
AcDbEntity
  8
HATCH_GREEN
 62
7
100
AcDbHatch
 10
0.0
 20
0.0
 30
0.0
210
0.0
220
0.0
230
1.0
  2
GRASS
 70
0
 71
0
 91
1
 92
3
 72
0
 73
1
 93
4
 10
282.5
 20
1426.25
 10
297.5
 20
1426.25
 10
297.5
 20
1438.75
 10
282.5
 20
1438.75
 97
0
 75
1
 76
1
 52
0.0
 41
1.5
 77
0
 78
3
 53
90.0
 43
0.0
 44
0.0
 45
-26.94076836
 46
26.94076836
 79
2
 49
7.14375
 49
-46.73778672
 53
45.0
 43
0.0
 44
0.0
 45
-26.9407683631
 46
26.9407683631
 79
2
 49
7.14375
 49
-30.95625
 53
135.0
 43
0.0
 44
0.0
 45
-26.9407683631
 46
-26.9407683631
 79
2
 49
7.14375
 49
-30.95625
 98
0
  0
LWPOLYLINE
  5
87B
330
17
100
AcDbEntity
  8
BUILDINGS
370
50
100
AcDbPolyline
 90
4
 70
1
 10
275.0
 20
1490.0
 10
305.0
 20
1490.0
 10
305.0
 20
1515.0
 10
275.0
 20
1515.0
  0
HATCH
  5
87C
330
17
100
AcDbEntity
  8
BUILDINGS
 62
7
100
AcDbHatch
 10
0.0
 20
0.0
 30
0.0
210
0.0
220
0.0
230
1.0
  2
ANSI31
 70
0
 71
0
 91
1
 92
3
 72
0
 73
1
 93
4
 10
275.0
 20
1490.0
 10
305.0
 20
1490.0
 10
305.0
 20
1515.0
 10
275.0
 20
1515.0
 97
0
 75
1
 76
1
 52
0.0
 41
2.0
 77
0
 78
1
 53
45.0
 43
0.0
 44
0.0
 45
-4.4901280606
 46
4.4901280606
 79
0
 98
0
  0
LWPOLYLINE
  5
87D
330
17
100
AcDbEntity
  8
GREEN_CORRIDOR
370
25
100
AcDbPolyline
 90
4
 70
1
 10
282.5
 20
1496.25
 10
297.5
 20
1496.25
 10
297.5
 20
1508.75
 10
282.5
 20
1508.75
  0
HATCH
  5
87E
330
17
100
AcDbEntity
  8
HATCH_GREEN
 62
7
100
AcDbHatch
 10
0.0
 20
0.0
 30
0.0
210
0.0
220
0.0
230
1.0
  2
GRASS
 70
0
 71
0
 91
1
 92
3
 72
0
 73
1
 93
4
 10
282.5
 20
1496.25
 10
297.5
 20
1496.25
 10
297.5
 20
1508.75
 10
282.5
 20
1508.75
 97
0
 75
1
 76
1
 52
0.0
 41
1.5
 77
0
 78
3
 53
90.0
 43
0.0
 44
0.0
 45
-26.94076836
 46
26.94076836
 79
2
 49
7.14375
 49
-46.73778672
 53
45.0
 43
0.0
 44
0.0
 45
-26.9407683631
 46
26.9407683631
 79
2
 49
7.14375
 49
-30.95625
 53
135.0
 43
0.0
 44
0.0
 45
-26.9407683631
 46
-26.9407683631
 79
2
 49
7.14375
 49
-30.95625
 98
0
  0
LWPOLYLINE
  5
87F
330
17
100
AcDbEntity
  8
BUILDINGS
370
50
100
AcDbPolyline
 90
4
 70
1
 10
275.0
 20
1560.0
 10
305.0
 20
1560.0
 10
305.0
 20
1585.0
 10
275.0
 20
1585.0
  0
HATCH
  5
880
330
17
100
AcDbEntity
  8
BUILDINGS
 62
7
100
AcDbHatch
 10
0.0
 20
0.0
 30
0.0
210
0.0
220
0.0
230
1.0
  2
ANSI31
 70
0
 71
0
 91
1
 92
3
 72
0
 73
1
 93
4
 10
275.0
 20
1560.0
 10
305.0
 20
1560.0
 10
305.0
 20
1585.0
 10
275.0
 20
1585.0
 97
0
 75
1
 76
1
 52
0.0
 41
2.0
 77
0
 78
1
 53
45.0
 43
0.0
 44
0.0
 45
-4.4901280606
 46
4.4901280606
 79
0
 98
0
  0
LWPOLYLINE
  5
881
330
17
100
AcDbEntity
  8
GREEN_CORRIDOR
370
25
100
AcDbPolyline
 90
4
 70
1
 10
282.5
 20
1566.25
 10
297.5
 20
1566.25
 10
297.5
 20
1578.75
 10
282.5
 20
1578.75
  0
HATCH
  5
882
330
17
100
AcDbEntity
  8
HATCH_GREEN
 62
7
100
AcDbHatch
 10
0.0
 20
0.0
 30
0.0
210
0.0
220
0.0
230
1.0
  2
GRASS
 70
0
 71
0
 91
1
 92
3
 72
0
 73
1
 93
4
 10
282.5
 20
1566.25
 10
297.5
 20
1566.25
 10
297.5
 20
1578.75
 10
282.5
 20
1578.75
 97
0
 75
1
 76
1
 52
0.0
 41
1.5
 77
0
 78
3
 53
90.0
 43
0.0
 44
0.0
 45
-26.94076836
 46
26.94076836
 79
2
 49
7.14375
 49
-46.73778672
 53
45.0
 43
0.0
 44
0.0
 45
-26.9407683631
 46
26.9407683631
 79
2
 49
7.14375
 49
-30.95625
 53
135.0
 43
0.0
 44
0.0
 45
-26.9407683631
 46
-26.9407683631
 79
2
 49
7.14375
 49
-30.95625
 98
0
  0
LWPOLYLINE
  5
883
330
17
100
AcDbEntity
  8
BUILDINGS
370
50
100
AcDbPolyline
 90
4
 70
1
 10
275.0
 20
1630.0
 10
305.0
 20
1630.0
 10
305.0
 20
1655.0
 10
275.0
 20
1655.0
  0
HATCH
  5
884
330
17
100
AcDbEntity
  8
BUILDINGS
 62
7
100
AcDbHatch
 10
0.0
 20
0.0
 30
0.0
210
0.0
220
0.0
230
1.0
  2
ANSI31
 70
0
 71
0
 91
1
 92
3
 72
0
 73
1
 93
4
 10
275.0
 20
1630.0
 10
305.0
 20
1630.0
 10
305.0
 20
1655.0
 10
275.0
 20
1655.0
 97
0
 75
1
 76
1
 52
0.0
 41
2.0
 77
0
 78
1
 53
45.0
 43
0.0
 44
0.0
 45
-4.4901280606
 46
4.4901280606
 79
0
 98
0
  0
LWPOLYLINE
  5
885
330
17
100
AcDbEntity
  8
GREEN_CORRIDOR
370
25
100
AcDbPolyline
 90
4
 70
1
 10
282.5
 20
1636.25
 10
297.5
 20
1636.25
 10
297.5
 20
1648.75
 10
282.5
 20
1648.75
  0
HATCH
  5
886
330
17
100
AcDbEntity
  8
HATCH_GREEN
 62
7
100
AcDbHatch
 10
0.0
 20
0.0
 30
0.0
210
0.0
220
0.0
230
1.0
  2
GRASS
 70
0
 71
0
 91
1
 92
3
 72
0
 73
1
 93
4
 10
282.5
 20
1636.25
 10
297.5
 20
1636.25
 10
297.5
 20
1648.75
 10
282.5
 20
1648.75
 97
0
 75
1
 76
1
 52
0.0
 41
1.5
 77
0
 78
3
 53
90.0
 43
0.0
 44
0.0
 45
-26.94076836
 46
26.94076836
 79
2
 49
7.14375
 49
-46.73778672
 53
45.0
 43
0.0
 44
0.0
 45
-26.9407683631
 46
26.9407683631
 79
2
 49
7.14375
 49
-30.95625
 53
135.0
 43
0.0
 44
0.0
 45
-26.9407683631
 46
-26.9407683631
 79
2
 49
7.14375
 49
-30.95625
 98
0
  0
LWPOLYLINE
  5
887
330
17
100
AcDbEntity
  8
BUILDINGS
370
50
100
AcDbPolyline
 90
4
 70
1
 10
275.0
 20
1700.0
 10
305.0
 20
1700.0
 10
305.0
 20
1725.0
 10
275.0
 20
1725.0
  0
HATCH
  5
888
330
17
100
AcDbEntity
  8
BUILDINGS
 62
7
100
AcDbHatch
 10
0.0
 20
0.0
 30
0.0
210
0.0
220
0.0
230
1.0
  2
ANSI31
 70
0
 71
0
 91
1
 92
3
 72
0
 73
1
 93
4
 10
275.0
 20
1700.0
 10
305.0
 20
1700.0
 10
305.0
 20
1725.0
 10
275.0
 20
1725.0
 97
0
 75
1
 76
1
 52
0.0
 41
2.0
 77
0
 78
1
 53
45.0
 43
0.0
 44
0.0
 45
-4.4901280606
 46
4.4901280606
 79
0
 98
0
  0
LWPOLYLINE
  5
889
330
17
100
AcDbEntity
  8
GREEN_CORRIDOR
370
25
100
AcDbPolyline
 90
4
 70
1
 10
282.5
 20
1706.25
 10
297.5
 20
1706.25
 10
297.5
 20
1718.75
 10
282.5
 20
1718.75
  0
HATCH
  5
88A
330
17
100
AcDbEntity
  8
HATCH_GREEN
 62
7
100
AcDbHatch
 10
0.0
 20
0.0
 30
0.0
210
0.0
220
0.0
230
1.0
  2
GRASS
 70
0
 71
0
 91
1
 92
3
 72
0
 73
1
 93
4
 10
282.5
 20
1706.25
 10
297.5
 20
1706.25
 10
297.5
 20
1718.75
 10
282.5
 20
1718.75
 97
0
 75
1
 76
1
 52
0.0
 41
1.5
 77
0
 78
3
 53
90.0
 43
0.0
 44
0.0
 45
-26.94076836
 46
26.94076836
 79
2
 49
7.14375
 49
-46.73778672
 53
45.0
 43
0.0
 44
0.0
 45
-26.9407683631
 46
26.9407683631
 79
2
 49
7.14375
 49
-30.95625
 53
135.0
 43
0.0
 44
0.0
 45
-26.9407683631
 46
-26.9407683631
 79
2
 49
7.14375
 49
-30.95625
 98
0
  0
LWPOLYLINE
  5
88B
330
17
100
AcDbEntity
  8
BUILDINGS
370
50
100
AcDbPolyline
 90
4
 70
1
 10
275.0
 20
1770.0
 10
305.0
 20
1770.0
 10
305.0
 20
1795.0
 10
275.0
 20
1795.0
  0
HATCH
  5
88C
330
17
100
AcDbEntity
  8
BUILDINGS
 62
7
100
AcDbHatch
 10
0.0
 20
0.0
 30
0.0
210
0.0
220
0.0
230
1.0
  2
ANSI31
 70
0
 71
0
 91
1
 92
3
 72
0
 73
1
 93
4
 10
275.0
 20
1770.0
 10
305.0
 20
1770.0
 10
305.0
 20
1795.0
 10
275.0
 20
1795.0
 97
0
 75
1
 76
1
 52
0.0
 41
2.0
 77
0
 78
1
 53
45.0
 43
0.0
 44
0.0
 45
-4.4901280606
 46
4.4901280606
 79
0
 98
0
  0
LWPOLYLINE
  5
88D
330
17
100
AcDbEntity
  8
GREEN_CORRIDOR
370
25
100
AcDbPolyline
 90
4
 70
1
 10
282.5
 20
1776.25
 10
297.5
 20
1776.25
 10
297.5
 20
1788.75
 10
282.5
 20
1788.75
  0
HATCH
  5
88E
330
17
100
AcDbEntity
  8
HATCH_GREEN
 62
7
100
AcDbHatch
 10
0.0
 20
0.0
 30
0.0
210
0.0
220
0.0
230
1.0
  2
GRASS
 70
0
 71
0
 91
1
 92
3
 72
0
 73
1
 93
4
 10
282.5
 20
1776.25
 10
297.5
 20
1776.25
 10
297.5
 20
1788.75
 10
282.5
 20
1788.75
 97
0
 75
1
 76
1
 52
0.0
 41
1.5
 77
0
 78
3
 53
90.0
 43
0.0
 44
0.0
 45
-26.94076836
 46
26.94076836
 79
2
 49
7.14375
 49
-46.73778672
 53
45.0
 43
0.0
 44
0.0
 45
-26.9407683631
 46
26.9407683631
 79
2
 49
7.14375
 49
-30.95625
 53
135.0
 43
0.0
 44
0.0
 45
-26.9407683631
 46
-26.9407683631
 79
2
 49
7.14375
 49
-30.95625
 98
0
  0
LWPOLYLINE
  5
88F
330
17
100
AcDbEntity
  8
BUILDINGS
370
50
100
AcDbPolyline
 90
4
 70
1
 10
330.0
 20
1420.0
 10
360.0
 20
1420.0
 10
360.0
 20
1445.0
 10
330.0
 20
1445.0
  0
HATCH
  5
890
330
17
100
AcDbEntity
  8
BUILDINGS
 62
7
100
AcDbHatch
 10
0.0
 20
0.0
 30
0.0
210
0.0
220
0.0
230
1.0
  2
ANSI31
 70
0
 71
0
 91
1
 92
3
 72
0
 73
1
 93
4
 10
330.0
 20
1420.0
 10
360.0
 20
1420.0
 10
360.0
 20
1445.0
 10
330.0
 20
1445.0
 97
0
 75
1
 76
1
 52
0.0
 41
2.0
 77
0
 78
1
 53
45.0
 43
0.0
 44
0.0
 45
-4.4901280606
 46
4.4901280606
 79
0
 98
0
  0
LWPOLYLINE
  5
891
330
17
100
AcDbEntity
  8
GREEN_CORRIDOR
370
25
100
AcDbPolyline
 90
4
 70
1
 10
337.5
 20
1426.25
 10
352.5
 20
1426.25
 10
352.5
 20
1438.75
 10
337.5
 20
1438.75
  0
HATCH
  5
892
330
17
100
AcDbEntity
  8
HATCH_GREEN
 62
7
100
AcDbHatch
 10
0.0
 20
0.0
 30
0.0
210
0.0
220
0.0
230
1.0
  2
GRASS
 70
0
 71
0
 91
1
 92
3
 72
0
 73
1
 93
4
 10
337.5
 20
1426.25
 10
352.5
 20
1426.25
 10
352.5
 20
1438.75
 10
337.5
 20
1438.75
 97
0
 75
1
 76
1
 52
0.0
 41
1.5
 77
0
 78
3
 53
90.0
 43
0.0
 44
0.0
 45
-26.94076836
 46
26.94076836
 79
2
 49
7.14375
 49
-46.73778672
 53
45.0
 43
0.0
 44
0.0
 45
-26.9407683631
 46
26.9407683631
 79
2
 49
7.14375
 49
-30.95625
 53
135.0
 43
0.0
 44
0.0
 45
-26.9407683631
 46
-26.9407683631
 79
2
 49
7.14375
 49
-30.95625
 98
0
  0
LWPOLYLINE
  5
893
330
17
100
AcDbEntity
  8
BUILDINGS
370
50
100
AcDbPolyline
 90
4
 70
1
 10
330.0
 20
1490.0
 10
360.0
 20
1490.0
 10
360.0
 20
1515.0
 10
330.0
 20
1515.0
  0
HATCH
  5
894
330
17
100
AcDbEntity
  8
BUILDINGS
 62
7
100
AcDbHatch
 10
0.0
 20
0.0
 30
0.0
210
0.0
220
0.0
230
1.0
  2
ANSI31
 70
0
 71
0
 91
1
 92
3
 72
0
 73
1
 93
4
 10
330.0
 20
1490.0
 10
360.0
 20
1490.0
 10
360.0
 20
1515.0
 10
330.0
 20
1515.0
 97
0
 75
1
 76
1
 52
0.0
 41
2.0
 77
0
 78
1
 53
45.0
 43
0.0
 44
0.0
 45
-4.4901280606
 46
4.4901280606
 79
0
 98
0
  0
LWPOLYLINE
  5
895
330
17
100
AcDbEntity
  8
GREEN_CORRIDOR
370
25
100
AcDbPolyline
 90
4
 70
1
 10
337.5
 20
1496.25
 10
352.5
 20
1496.25
 10
352.5
 20
1508.75
 10
337.5
 20
1508.75
  0
HATCH
  5
896
330
17
100
AcDbEntity
  8
HATCH_GREEN
 62
7
100
AcDbHatch
 10
0.0
 20
0.0
 30
0.0
210
0.0
220
0.0
230
1.0
  2
GRASS
 70
0
 71
0
 91
1
 92
3
 72
0
 73
1
 93
4
 10
337.5
 20
1496.25
 10
352.5
 20
1496.25
 10
352.5
 20
1508.75
 10
337.5
 20
1508.75
 97
0
 75
1
 76
1
 52
0.0
 41
1.5
 77
0
 78
3
 53
90.0
 43
0.0
 44
0.0
 45
-26.94076836
 46
26.94076836
 79
2
 49
7.14375
 49
-46.73778672
 53
45.0
 43
0.0
 44
0.0
 45
-26.9407683631
 46
26.9407683631
 79
2
 49
7.14375
 49
-30.95625
 53
135.0
 43
0.0
 44
0.0
 45
-26.9407683631
 46
-26.9407683631
 79
2
 49
7.14375
 49
-30.95625
 98
0
  0
LWPOLYLINE
  5
897
330
17
100
AcDbEntity
  8
BUILDINGS
370
50
100
AcDbPolyline
 90
4
 70
1
 10
330.0
 20
1560.0
 10
360.0
 20
1560.0
 10
360.0
 20
1585.0
 10
330.0
 20
1585.0
  0
HATCH
  5
898
330
17
100
AcDbEntity
  8
BUILDINGS
 62
7
100
AcDbHatch
 10
0.0
 20
0.0
 30
0.0
210
0.0
220
0.0
230
1.0
  2
ANSI31
 70
0
 71
0
 91
1
 92
3
 72
0
 73
1
 93
4
 10
330.0
 20
1560.0
 10
360.0
 20
1560.0
 10
360.0
 20
1585.0
 10
330.0
 20
1585.0
 97
0
 75
1
 76
1
 52
0.0
 41
2.0
 77
0
 78
1
 53
45.0
 43
0.0
 44
0.0
 45
-4.4901280606
 46
4.4901280606
 79
0
 98
0
  0
LWPOLYLINE
  5
899
330
17
100
AcDbEntity
  8
GREEN_CORRIDOR
370
25
100
AcDbPolyline
 90
4
 70
1
 10
337.5
 20
1566.25
 10
352.5
 20
1566.25
 10
352.5
 20
1578.75
 10
337.5
 20
1578.75
  0
HATCH
  5
89A
330
17
100
AcDbEntity
  8
HATCH_GREEN
 62
7
100
AcDbHatch
 10
0.0
 20
0.0
 30
0.0
210
0.0
220
0.0
230
1.0
  2
GRASS
 70
0
 71
0
 91
1
 92
3
 72
0
 73
1
 93
4
 10
337.5
 20
1566.25
 10
352.5
 20
1566.25
 10
352.5
 20
1578.75
 10
337.5
 20
1578.75
 97
0
 75
1
 76
1
 52
0.0
 41
1.5
 77
0
 78
3
 53
90.0
 43
0.0
 44
0.0
 45
-26.94076836
 46
26.94076836
 79
2
 49
7.14375
 49
-46.73778672
 53
45.0
 43
0.0
 44
0.0
 45
-26.9407683631
 46
26.9407683631
 79
2
 49
7.14375
 49
-30.95625
 53
135.0
 43
0.0
 44
0.0
 45
-26.9407683631
 46
-26.9407683631
 79
2
 49
7.14375
 49
-30.95625
 98
0
  0
LWPOLYLINE
  5
89B
330
17
100
AcDbEntity
  8
BUILDINGS
370
50
100
AcDbPolyline
 90
4
 70
1
 10
330.0
 20
1630.0
 10
360.0
 20
1630.0
 10
360.0
 20
1655.0
 10
330.0
 20
1655.0
  0
HATCH
  5
89C
330
17
100
AcDbEntity
  8
BUILDINGS
 62
7
100
AcDbHatch
 10
0.0
 20
0.0
 30
0.0
210
0.0
220
0.0
230
1.0
  2
ANSI31
 70
0
 71
0
 91
1
 92
3
 72
0
 73
1
 93
4
 10
330.0
 20
1630.0
 10
360.0
 20
1630.0
 10
360.0
 20
1655.0
 10
330.0
 20
1655.0
 97
0
 75
1
 76
1
 52
0.0
 41
2.0
 77
0
 78
1
 53
45.0
 43
0.0
 44
0.0
 45
-4.4901280606
 46
4.4901280606
 79
0
 98
0
  0
LWPOLYLINE
  5
89D
330
17
100
AcDbEntity
  8
GREEN_CORRIDOR
370
25
100
AcDbPolyline
 90
4
 70
1
 10
337.5
 20
1636.25
 10
352.5
 20
1636.25
 10
352.5
 20
1648.75
 10
337.5
 20
1648.75
  0
HATCH
  5
89E
330
17
100
AcDbEntity
  8
HATCH_GREEN
 62
7
100
AcDbHatch
 10
0.0
 20
0.0
 30
0.0
210
0.0
220
0.0
230
1.0
  2
GRASS
 70
0
 71
0
 91
1
 92
3
 72
0
 73
1
 93
4
 10
337.5
 20
1636.25
 10
352.5
 20
1636.25
 10
352.5
 20
1648.75
 10
337.5
 20
1648.75
 97
0
 75
1
 76
1
 52
0.0
 41
1.5
 77
0
 78
3
 53
90.0
 43
0.0
 44
0.0
 45
-26.94076836
 46
26.94076836
 79
2
 49
7.14375
 49
-46.73778672
 53
45.0
 43
0.0
 44
0.0
 45
-26.9407683631
 46
26.9407683631
 79
2
 49
7.14375
 49
-30.95625
 53
135.0
 43
0.0
 44
0.0
 45
-26.9407683631
 46
-26.9407683631
 79
2
 49
7.14375
 49
-30.95625
 98
0
  0
LWPOLYLINE
  5
89F
330
17
100
AcDbEntity
  8
BUILDINGS
370
50
100
AcDbPolyline
 90
4
 70
1
 10
330.0
 20
1700.0
 10
360.0
 20
1700.0
 10
360.0
 20
1725.0
 10
330.0
 20
1725.0
  0
HATCH
  5
8A0
330
17
100
AcDbEntity
  8
BUILDINGS
 62
7
100
AcDbHatch
 10
0.0
 20
0.0
 30
0.0
210
0.0
220
0.0
230
1.0
  2
ANSI31
 70
0
 71
0
 91
1
 92
3
 72
0
 73
1
 93
4
 10
330.0
 20
1700.0
 10
360.0
 20
1700.0
 10
360.0
 20
1725.0
 10
330.0
 20
1725.0
 97
0
 75
1
 76
1
 52
0.0
 41
2.0
 77
0
 78
1
 53
45.0
 43
0.0
 44
0.0
 45
-4.4901280606
 46
4.4901280606
 79
0
 98
0
  0
LWPOLYLINE
  5
8A1
330
17
100
AcDbEntity
  8
GREEN_CORRIDOR
370
25
100
AcDbPolyline
 90
4
 70
1
 10
337.5
 20
1706.25
 10
352.5
 20
1706.25
 10
352.5
 20
1718.75
 10
337.5
 20
1718.75
  0
HATCH
  5
8A2
330
17
100
AcDbEntity
  8
HATCH_GREEN
 62
7
100
AcDbHatch
 10
0.0
 20
0.0
 30
0.0
210
0.0
220
0.0
230
1.0
  2
GRASS
 70
0
 71
0
 91
1
 92
3
 72
0
 73
1
 93
4
 10
337.5
 20
1706.25
 10
352.5
 20
1706.25
 10
352.5
 20
1718.75
 10
337.5
 20
1718.75
 97
0
 75
1
 76
1
 52
0.0
 41
1.5
 77
0
 78
3
 53
90.0
 43
0.0
 44
0.0
 45
-26.94076836
 46
26.94076836
 79
2
 49
7.14375
 49
-46.73778672
 53
45.0
 43
0.0
 44
0.0
 45
-26.9407683631
 46
26.9407683631
 79
2
 49
7.14375
 49
-30.95625
 53
135.0
 43
0.0
 44
0.0
 45
-26.9407683631
 46
-26.9407683631
 79
2
 49
7.14375
 49
-30.95625
 98
0
  0
LWPOLYLINE
  5
8A3
330
17
100
AcDbEntity
  8
BUILDINGS
370
50
100
AcDbPolyline
 90
4
 70
1
 10
330.0
 20
1770.0
 10
360.0
 20
1770.0
 10
360.0
 20
1795.0
 10
330.0
 20
1795.0
  0
HATCH
  5
8A4
330
17
100
AcDbEntity
  8
BUILDINGS
 62
7
100
AcDbHatch
 10
0.0
 20
0.0
 30
0.0
210
0.0
220
0.0
230
1.0
  2
ANSI31
 70
0
 71
0
 91
1
 92
3
 72
0
 73
1
 93
4
 10
330.0
 20
1770.0
 10
360.0
 20
1770.0
 10
360.0
 20
1795.0
 10
330.0
 20
1795.0
 97
0
 75
1
 76
1
 52
0.0
 41
2.0
 77
0
 78
1
 53
45.0
 43
0.0
 44
0.0
 45
-4.4901280606
 46
4.4901280606
 79
0
 98
0
  0
LWPOLYLINE
  5
8A5
330
17
100
AcDbEntity
  8
GREEN_CORRIDOR
370
25
100
AcDbPolyline
 90
4
 70
1
 10
337.5
 20
1776.25
 10
352.5
 20
1776.25
 10
352.5
 20
1788.75
 10
337.5
 20
1788.75
  0
HATCH
  5
8A6
330
17
100
AcDbEntity
  8
HATCH_GREEN
 62
7
100
AcDbHatch
 10
0.0
 20
0.0
 30
0.0
210
0.0
220
0.0
230
1.0
  2
GRASS
 70
0
 71
0
 91
1
 92
3
 72
0
 73
1
 93
4
 10
337.5
 20
1776.25
 10
352.5
 20
1776.25
 10
352.5
 20
1788.75
 10
337.5
 20
1788.75
 97
0
 75
1
 76
1
 52
0.0
 41
1.5
 77
0
 78
3
 53
90.0
 43
0.0
 44
0.0
 45
-26.94076836
 46
26.94076836
 79
2
 49
7.14375
 49
-46.73778672
 53
45.0
 43
0.0
 44
0.0
 45
-26.9407683631
 46
26.9407683631
 79
2
 49
7.14375
 49
-30.95625
 53
135.0
 43
0.0
 44
0.0
 45
-26.9407683631
 46
-26.9407683631
 79
2
 49
7.14375
 49
-30.95625
 98
0
  0
LWPOLYLINE
  5
8A7
330
17
100
AcDbEntity
  8
BUILDINGS
370
50
100
AcDbPolyline
 90
4
 70
1
 10
385.0
 20
1420.0
 10
415.0
 20
1420.0
 10
415.0
 20
1445.0
 10
385.0
 20
1445.0
  0
HATCH
  5
8A8
330
17
100
AcDbEntity
  8
BUILDINGS
 62
7
100
AcDbHatch
 10
0.0
 20
0.0
 30
0.0
210
0.0
220
0.0
230
1.0
  2
ANSI31
 70
0
 71
0
 91
1
 92
3
 72
0
 73
1
 93
4
 10
385.0
 20
1420.0
 10
415.0
 20
1420.0
 10
415.0
 20
1445.0
 10
385.0
 20
1445.0
 97
0
 75
1
 76
1
 52
0.0
 41
2.0
 77
0
 78
1
 53
45.0
 43
0.0
 44
0.0
 45
-4.4901280606
 46
4.4901280606
 79
0
 98
0
  0
LWPOLYLINE
  5
8A9
330
17
100
AcDbEntity
  8
GREEN_CORRIDOR
370
25
100
AcDbPolyline
 90
4
 70
1
 10
392.5
 20
1426.25
 10
407.5
 20
1426.25
 10
407.5
 20
1438.75
 10
392.5
 20
1438.75
  0
HATCH
  5
8AA
330
17
100
AcDbEntity
  8
HATCH_GREEN
 62
7
100
AcDbHatch
 10
0.0
 20
0.0
 30
0.0
210
0.0
220
0.0
230
1.0
  2
GRASS
 70
0
 71
0
 91
1
 92
3
 72
0
 73
1
 93
4
 10
392.5
 20
1426.25
 10
407.5
 20
1426.25
 10
407.5
 20
1438.75
 10
392.5
 20
1438.75
 97
0
 75
1
 76
1
 52
0.0
 41
1.5
 77
0
 78
3
 53
90.0
 43
0.0
 44
0.0
 45
-26.94076836
 46
26.94076836
 79
2
 49
7.14375
 49
-46.73778672
 53
45.0
 43
0.0
 44
0.0
 45
-26.9407683631
 46
26.9407683631
 79
2
 49
7.14375
 49
-30.95625
 53
135.0
 43
0.0
 44
0.0
 45
-26.9407683631
 46
-26.9407683631
 79
2
 49
7.14375
 49
-30.95625
 98
0
  0
LWPOLYLINE
  5
8AB
330
17
100
AcDbEntity
  8
BUILDINGS
370
50
100
AcDbPolyline
 90
4
 70
1
 10
385.0
 20
1490.0
 10
415.0
 20
1490.0
 10
415.0
 20
1515.0
 10
385.0
 20
1515.0
  0
HATCH
  5
8AC
330
17
100
AcDbEntity
  8
BUILDINGS
 62
7
100
AcDbHatch
 10
0.0
 20
0.0
 30
0.0
210
0.0
220
0.0
230
1.0
  2
ANSI31
 70
0
 71
0
 91
1
 92
3
 72
0
 73
1
 93
4
 10
385.0
 20
1490.0
 10
415.0
 20
1490.0
 10
415.0
 20
1515.0
 10
385.0
 20
1515.0
 97
0
 75
1
 76
1
 52
0.0
 41
2.0
 77
0
 78
1
 53
45.0
 43
0.0
 44
0.0
 45
-4.4901280606
 46
4.4901280606
 79
0
 98
0
  0
LWPOLYLINE
  5
8AD
330
17
100
AcDbEntity
  8
GREEN_CORRIDOR
370
25
100
AcDbPolyline
 90
4
 70
1
 10
392.5
 20
1496.25
 10
407.5
 20
1496.25
 10
407.5
 20
1508.75
 10
392.5
 20
1508.75
  0
HATCH
  5
8AE
330
17
100
AcDbEntity
  8
HATCH_GREEN
 62
7
100
AcDbHatch
 10
0.0
 20
0.0
 30
0.0
210
0.0
220
0.0
230
1.0
  2
GRASS
 70
0
 71
0
 91
1
 92
3
 72
0
 73
1
 93
4
 10
392.5
 20
1496.25
 10
407.5
 20
1496.25
 10
407.5
 20
1508.75
 10
392.5
 20
1508.75
 97
0
 75
1
 76
1
 52
0.0
 41
1.5
 77
0
 78
3
 53
90.0
 43
0.0
 44
0.0
 45
-26.94076836
 46
26.94076836
 79
2
 49
7.14375
 49
-46.73778672
 53
45.0
 43
0.0
 44
0.0
 45
-26.9407683631
 46
26.9407683631
 79
2
 49
7.14375
 49
-30.95625
 53
135.0
 43
0.0
 44
0.0
 45
-26.9407683631
 46
-26.9407683631
 79
2
 49
7.14375
 49
-30.95625
 98
0
  0
LWPOLYLINE
  5
8AF
330
17
100
AcDbEntity
  8
BUILDINGS
370
50
100
AcDbPolyline
 90
4
 70
1
 10
385.0
 20
1560.0
 10
415.0
 20
1560.0
 10
415.0
 20
1585.0
 10
385.0
 20
1585.0
  0
HATCH
  5
8B0
330
17
100
AcDbEntity
  8
BUILDINGS
 62
7
100
AcDbHatch
 10
0.0
 20
0.0
 30
0.0
210
0.0
220
0.0
230
1.0
  2
ANSI31
 70
0
 71
0
 91
1
 92
3
 72
0
 73
1
 93
4
 10
385.0
 20
1560.0
 10
415.0
 20
1560.0
 10
415.0
 20
1585.0
 10
385.0
 20
1585.0
 97
0
 75
1
 76
1
 52
0.0
 41
2.0
 77
0
 78
1
 53
45.0
 43
0.0
 44
0.0
 45
-4.4901280606
 46
4.4901280606
 79
0
 98
0
  0
LWPOLYLINE
  5
8B1
330
17
100
AcDbEntity
  8
GREEN_CORRIDOR
370
25
100
AcDbPolyline
 90
4
 70
1
 10
392.5
 20
1566.25
 10
407.5
 20
1566.25
 10
407.5
 20
1578.75
 10
392.5
 20
1578.75
  0
HATCH
  5
8B2
330
17
100
AcDbEntity
  8
HATCH_GREEN
 62
7
100
AcDbHatch
 10
0.0
 20
0.0
 30
0.0
210
0.0
220
0.0
230
1.0
  2
GRASS
 70
0
 71
0
 91
1
 92
3
 72
0
 73
1
 93
4
 10
392.5
 20
1566.25
 10
407.5
 20
1566.25
 10
407.5
 20
1578.75
 10
392.5
 20
1578.75
 97
0
 75
1
 76
1
 52
0.0
 41
1.5
 77
0
 78
3
 53
90.0
 43
0.0
 44
0.0
 45
-26.94076836
 46
26.94076836
 79
2
 49
7.14375
 49
-46.73778672
 53
45.0
 43
0.0
 44
0.0
 45
-26.9407683631
 46
26.9407683631
 79
2
 49
7.14375
 49
-30.95625
 53
135.0
 43
0.0
 44
0.0
 45
-26.9407683631
 46
-26.9407683631
 79
2
 49
7.14375
 49
-30.95625
 98
0
  0
LWPOLYLINE
  5
8B3
330
17
100
AcDbEntity
  8
BUILDINGS
370
50
100
AcDbPolyline
 90
4
 70
1
 10
385.0
 20
1630.0
 10
415.0
 20
1630.0
 10
415.0
 20
1655.0
 10
385.0
 20
1655.0
  0
HATCH
  5
8B4
330
17
100
AcDbEntity
  8
BUILDINGS
 62
7
100
AcDbHatch
 10
0.0
 20
0.0
 30
0.0
210
0.0
220
0.0
230
1.0
  2
ANSI31
 70
0
 71
0
 91
1
 92
3
 72
0
 73
1
 93
4
 10
385.0
 20
1630.0
 10
415.0
 20
1630.0
 10
415.0
 20
1655.0
 10
385.0
 20
1655.0
 97
0
 75
1
 76
1
 52
0.0
 41
2.0
 77
0
 78
1
 53
45.0
 43
0.0
 44
0.0
 45
-4.4901280606
 46
4.4901280606
 79
0
 98
0
  0
LWPOLYLINE
  5
8B5
330
17
100
AcDbEntity
  8
GREEN_CORRIDOR
370
25
100
AcDbPolyline
 90
4
 70
1
 10
392.5
 20
1636.25
 10
407.5
 20
1636.25
 10
407.5
 20
1648.75
 10
392.5
 20
1648.75
  0
HATCH
  5
8B6
330
17
100
AcDbEntity
  8
HATCH_GREEN
 62
7
100
AcDbHatch
 10
0.0
 20
0.0
 30
0.0
210
0.0
220
0.0
230
1.0
  2
GRASS
 70
0
 71
0
 91
1
 92
3
 72
0
 73
1
 93
4
 10
392.5
 20
1636.25
 10
407.5
 20
1636.25
 10
407.5
 20
1648.75
 10
392.5
 20
1648.75
 97
0
 75
1
 76
1
 52
0.0
 41
1.5
 77
0
 78
3
 53
90.0
 43
0.0
 44
0.0
 45
-26.94076836
 46
26.94076836
 79
2
 49
7.14375
 49
-46.73778672
 53
45.0
 43
0.0
 44
0.0
 45
-26.9407683631
 46
26.9407683631
 79
2
 49
7.14375
 49
-30.95625
 53
135.0
 43
0.0
 44
0.0
 45
-26.9407683631
 46
-26.9407683631
 79
2
 49
7.14375
 49
-30.95625
 98
0
  0
LWPOLYLINE
  5
8B7
330
17
100
AcDbEntity
  8
BUILDINGS
370
50
100
AcDbPolyline
 90
4
 70
1
 10
385.0
 20
1700.0
 10
415.0
 20
1700.0
 10
415.0
 20
1725.0
 10
385.0
 20
1725.0
  0
HATCH
  5
8B8
330
17
100
AcDbEntity
  8
BUILDINGS
 62
7
100
AcDbHatch
 10
0.0
 20
0.0
 30
0.0
210
0.0
220
0.0
230
1.0
  2
ANSI31
 70
0
 71
0
 91
1
 92
3
 72
0
 73
1
 93
4
 10
385.0
 20
1700.0
 10
415.0
 20
1700.0
 10
415.0
 20
1725.0
 10
385.0
 20
1725.0
 97
0
 75
1
 76
1
 52
0.0
 41
2.0
 77
0
 78
1
 53
45.0
 43
0.0
 44
0.0
 45
-4.4901280606
 46
4.4901280606
 79
0
 98
0
  0
LWPOLYLINE
  5
8B9
330
17
100
AcDbEntity
  8
GREEN_CORRIDOR
370
25
100
AcDbPolyline
 90
4
 70
1
 10
392.5
 20
1706.25
 10
407.5
 20
1706.25
 10
407.5
 20
1718.75
 10
392.5
 20
1718.75
  0
HATCH
  5
8BA
330
17
100
AcDbEntity
  8
HATCH_GREEN
 62
7
100
AcDbHatch
 10
0.0
 20
0.0
 30
0.0
210
0.0
220
0.0
230
1.0
  2
GRASS
 70
0
 71
0
 91
1
 92
3
 72
0
 73
1
 93
4
 10
392.5
 20
1706.25
 10
407.5
 20
1706.25
 10
407.5
 20
1718.75
 10
392.5
 20
1718.75
 97
0
 75
1
 76
1
 52
0.0
 41
1.5
 77
0
 78
3
 53
90.0
 43
0.0
 44
0.0
 45
-26.94076836
 46
26.94076836
 79
2
 49
7.14375
 49
-46.73778672
 53
45.0
 43
0.0
 44
0.0
 45
-26.9407683631
 46
26.9407683631
 79
2
 49
7.14375
 49
-30.95625
 53
135.0
 43
0.0
 44
0.0
 45
-26.9407683631
 46
-26.9407683631
 79
2
 49
7.14375
 49
-30.95625
 98
0
  0
LWPOLYLINE
  5
8BB
330
17
100
AcDbEntity
  8
BUILDINGS
370
50
100
AcDbPolyline
 90
4
 70
1
 10
385.0
 20
1770.0
 10
415.0
 20
1770.0
 10
415.0
 20
1795.0
 10
385.0
 20
1795.0
  0
HATCH
  5
8BC
330
17
100
AcDbEntity
  8
BUILDINGS
 62
7
100
AcDbHatch
 10
0.0
 20
0.0
 30
0.0
210
0.0
220
0.0
230
1.0
  2
ANSI31
 70
0
 71
0
 91
1
 92
3
 72
0
 73
1
 93
4
 10
385.0
 20
1770.0
 10
415.0
 20
1770.0
 10
415.0
 20
1795.0
 10
385.0
 20
1795.0
 97
0
 75
1
 76
1
 52
0.0
 41
2.0
 77
0
 78
1
 53
45.0
 43
0.0
 44
0.0
 45
-4.4901280606
 46
4.4901280606
 79
0
 98
0
  0
LWPOLYLINE
  5
8BD
330
17
100
AcDbEntity
  8
GREEN_CORRIDOR
370
25
100
AcDbPolyline
 90
4
 70
1
 10
392.5
 20
1776.25
 10
407.5
 20
1776.25
 10
407.5
 20
1788.75
 10
392.5
 20
1788.75
  0
HATCH
  5
8BE
330
17
100
AcDbEntity
  8
HATCH_GREEN
 62
7
100
AcDbHatch
 10
0.0
 20
0.0
 30
0.0
210
0.0
220
0.0
230
1.0
  2
GRASS
 70
0
 71
0
 91
1
 92
3
 72
0
 73
1
 93
4
 10
392.5
 20
1776.25
 10
407.5
 20
1776.25
 10
407.5
 20
1788.75
 10
392.5
 20
1788.75
 97
0
 75
1
 76
1
 52
0.0
 41
1.5
 77
0
 78
3
 53
90.0
 43
0.0
 44
0.0
 45
-26.94076836
 46
26.94076836
 79
2
 49
7.14375
 49
-46.73778672
 53
45.0
 43
0.0
 44
0.0
 45
-26.9407683631
 46
26.9407683631
 79
2
 49
7.14375
 49
-30.95625
 53
135.0
 43
0.0
 44
0.0
 45
-26.9407683631
 46
-26.9407683631
 79
2
 49
7.14375
 49
-30.95625
 98
0
  0
LWPOLYLINE
  5
8BF
330
17
100
AcDbEntity
  8
BUILDINGS
370
50
100
AcDbPolyline
 90
4
 70
1
 10
440.0
 20
1420.0
 10
470.0
 20
1420.0
 10
470.0
 20
1445.0
 10
440.0
 20
1445.0
  0
HATCH
  5
8C0
330
17
100
AcDbEntity
  8
BUILDINGS
 62
7
100
AcDbHatch
 10
0.0
 20
0.0
 30
0.0
210
0.0
220
0.0
230
1.0
  2
ANSI31
 70
0
 71
0
 91
1
 92
3
 72
0
 73
1
 93
4
 10
440.0
 20
1420.0
 10
470.0
 20
1420.0
 10
470.0
 20
1445.0
 10
440.0
 20
1445.0
 97
0
 75
1
 76
1
 52
0.0
 41
2.0
 77
0
 78
1
 53
45.0
 43
0.0
 44
0.0
 45
-4.4901280606
 46
4.4901280606
 79
0
 98
0
  0
LWPOLYLINE
  5
8C1
330
17
100
AcDbEntity
  8
GREEN_CORRIDOR
370
25
100
AcDbPolyline
 90
4
 70
1
 10
447.5
 20
1426.25
 10
462.5
 20
1426.25
 10
462.5
 20
1438.75
 10
447.5
 20
1438.75
  0
HATCH
  5
8C2
330
17
100
AcDbEntity
  8
HATCH_GREEN
 62
7
100
AcDbHatch
 10
0.0
 20
0.0
 30
0.0
210
0.0
220
0.0
230
1.0
  2
GRASS
 70
0
 71
0
 91
1
 92
3
 72
0
 73
1
 93
4
 10
447.5
 20
1426.25
 10
462.5
 20
1426.25
 10
462.5
 20
1438.75
 10
447.5
 20
1438.75
 97
0
 75
1
 76
1
 52
0.0
 41
1.5
 77
0
 78
3
 53
90.0
 43
0.0
 44
0.0
 45
-26.94076836
 46
26.94076836
 79
2
 49
7.14375
 49
-46.73778672
 53
45.0
 43
0.0
 44
0.0
 45
-26.9407683631
 46
26.9407683631
 79
2
 49
7.14375
 49
-30.95625
 53
135.0
 43
0.0
 44
0.0
 45
-26.9407683631
 46
-26.9407683631
 79
2
 49
7.14375
 49
-30.95625
 98
0
  0
LWPOLYLINE
  5
8C3
330
17
100
AcDbEntity
  8
BUILDINGS
370
50
100
AcDbPolyline
 90
4
 70
1
 10
440.0
 20
1490.0
 10
470.0
 20
1490.0
 10
470.0
 20
1515.0
 10
440.0
 20
1515.0
  0
HATCH
  5
8C4
330
17
100
AcDbEntity
  8
BUILDINGS
 62
7
100
AcDbHatch
 10
0.0
 20
0.0
 30
0.0
210
0.0
220
0.0
230
1.0
  2
ANSI31
 70
0
 71
0
 91
1
 92
3
 72
0
 73
1
 93
4
 10
440.0
 20
1490.0
 10
470.0
 20
1490.0
 10
470.0
 20
1515.0
 10
440.0
 20
1515.0
 97
0
 75
1
 76
1
 52
0.0
 41
2.0
 77
0
 78
1
 53
45.0
 43
0.0
 44
0.0
 45
-4.4901280606
 46
4.4901280606
 79
0
 98
0
  0
LWPOLYLINE
  5
8C5
330
17
100
AcDbEntity
  8
GREEN_CORRIDOR
370
25
100
AcDbPolyline
 90
4
 70
1
 10
447.5
 20
1496.25
 10
462.5
 20
1496.25
 10
462.5
 20
1508.75
 10
447.5
 20
1508.75
  0
HATCH
  5
8C6
330
17
100
AcDbEntity
  8
HATCH_GREEN
 62
7
100
AcDbHatch
 10
0.0
 20
0.0
 30
0.0
210
0.0
220
0.0
230
1.0
  2
GRASS
 70
0
 71
0
 91
1
 92
3
 72
0
 73
1
 93
4
 10
447.5
 20
1496.25
 10
462.5
 20
1496.25
 10
462.5
 20
1508.75
 10
447.5
 20
1508.75
 97
0
 75
1
 76
1
 52
0.0
 41
1.5
 77
0
 78
3
 53
90.0
 43
0.0
 44
0.0
 45
-26.94076836
 46
26.94076836
 79
2
 49
7.14375
 49
-46.73778672
 53
45.0
 43
0.0
 44
0.0
 45
-26.9407683631
 46
26.9407683631
 79
2
 49
7.14375
 49
-30.95625
 53
135.0
 43
0.0
 44
0.0
 45
-26.9407683631
 46
-26.9407683631
 79
2
 49
7.14375
 49
-30.95625
 98
0
  0
LWPOLYLINE
  5
8C7
330
17
100
AcDbEntity
  8
BUILDINGS
370
50
100
AcDbPolyline
 90
4
 70
1
 10
440.0
 20
1560.0
 10
470.0
 20
1560.0
 10
470.0
 20
1585.0
 10
440.0
 20
1585.0
  0
HATCH
  5
8C8
330
17
100
AcDbEntity
  8
BUILDINGS
 62
7
100
AcDbHatch
 10
0.0
 20
0.0
 30
0.0
210
0.0
220
0.0
230
1.0
  2
ANSI31
 70
0
 71
0
 91
1
 92
3
 72
0
 73
1
 93
4
 10
440.0
 20
1560.0
 10
470.0
 20
1560.0
 10
470.0
 20
1585.0
 10
440.0
 20
1585.0
 97
0
 75
1
 76
1
 52
0.0
 41
2.0
 77
0
 78
1
 53
45.0
 43
0.0
 44
0.0
 45
-4.4901280606
 46
4.4901280606
 79
0
 98
0
  0
LWPOLYLINE
  5
8C9
330
17
100
AcDbEntity
  8
GREEN_CORRIDOR
370
25
100
AcDbPolyline
 90
4
 70
1
 10
447.5
 20
1566.25
 10
462.5
 20
1566.25
 10
462.5
 20
1578.75
 10
447.5
 20
1578.75
  0
HATCH
  5
8CA
330
17
100
AcDbEntity
  8
HATCH_GREEN
 62
7
100
AcDbHatch
 10
0.0
 20
0.0
 30
0.0
210
0.0
220
0.0
230
1.0
  2
GRASS
 70
0
 71
0
 91
1
 92
3
 72
0
 73
1
 93
4
 10
447.5
 20
1566.25
 10
462.5
 20
1566.25
 10
462.5
 20
1578.75
 10
447.5
 20
1578.75
 97
0
 75
1
 76
1
 52
0.0
 41
1.5
 77
0
 78
3
 53
90.0
 43
0.0
 44
0.0
 45
-26.94076836
 46
26.94076836
 79
2
 49
7.14375
 49
-46.73778672
 53
45.0
 43
0.0
 44
0.0
 45
-26.9407683631
 46
26.9407683631
 79
2
 49
7.14375
 49
-30.95625
 53
135.0
 43
0.0
 44
0.0
 45
-26.9407683631
 46
-26.9407683631
 79
2
 49
7.14375
 49
-30.95625
 98
0
  0
LWPOLYLINE
  5
8CB
330
17
100
AcDbEntity
  8
BUILDINGS
370
50
100
AcDbPolyline
 90
4
 70
1
 10
440.0
 20
1630.0
 10
470.0
 20
1630.0
 10
470.0
 20
1655.0
 10
440.0
 20
1655.0
  0
HATCH
  5
8CC
330
17
100
AcDbEntity
  8
BUILDINGS
 62
7
100
AcDbHatch
 10
0.0
 20
0.0
 30
0.0
210
0.0
220
0.0
230
1.0
  2
ANSI31
 70
0
 71
0
 91
1
 92
3
 72
0
 73
1
 93
4
 10
440.0
 20
1630.0
 10
470.0
 20
1630.0
 10
470.0
 20
1655.0
 10
440.0
 20
1655.0
 97
0
 75
1
 76
1
 52
0.0
 41
2.0
 77
0
 78
1
 53
45.0
 43
0.0
 44
0.0
 45
-4.4901280606
 46
4.4901280606
 79
0
 98
0
  0
LWPOLYLINE
  5
8CD
330
17
100
AcDbEntity
  8
GREEN_CORRIDOR
370
25
100
AcDbPolyline
 90
4
 70
1
 10
447.5
 20
1636.25
 10
462.5
 20
1636.25
 10
462.5
 20
1648.75
 10
447.5
 20
1648.75
  0
HATCH
  5
8CE
330
17
100
AcDbEntity
  8
HATCH_GREEN
 62
7
100
AcDbHatch
 10
0.0
 20
0.0
 30
0.0
210
0.0
220
0.0
230
1.0
  2
GRASS
 70
0
 71
0
 91
1
 92
3
 72
0
 73
1
 93
4
 10
447.5
 20
1636.25
 10
462.5
 20
1636.25
 10
462.5
 20
1648.75
 10
447.5
 20
1648.75
 97
0
 75
1
 76
1
 52
0.0
 41
1.5
 77
0
 78
3
 53
90.0
 43
0.0
 44
0.0
 45
-26.94076836
 46
26.94076836
 79
2
 49
7.14375
 49
-46.73778672
 53
45.0
 43
0.0
 44
0.0
 45
-26.9407683631
 46
26.9407683631
 79
2
 49
7.14375
 49
-30.95625
 53
135.0
 43
0.0
 44
0.0
 45
-26.9407683631
 46
-26.9407683631
 79
2
 49
7.14375
 49
-30.95625
 98
0
  0
LWPOLYLINE
  5
8CF
330
17
100
AcDbEntity
  8
BUILDINGS
370
50
100
AcDbPolyline
 90
4
 70
1
 10
440.0
 20
1700.0
 10
470.0
 20
1700.0
 10
470.0
 20
1725.0
 10
440.0
 20
1725.0
  0
HATCH
  5
8D0
330
17
100
AcDbEntity
  8
BUILDINGS
 62
7
100
AcDbHatch
 10
0.0
 20
0.0
 30
0.0
210
0.0
220
0.0
230
1.0
  2
ANSI31
 70
0
 71
0
 91
1
 92
3
 72
0
 73
1
 93
4
 10
440.0
 20
1700.0
 10
470.0
 20
1700.0
 10
470.0
 20
1725.0
 10
440.0
 20
1725.0
 97
0
 75
1
 76
1
 52
0.0
 41
2.0
 77
0
 78
1
 53
45.0
 43
0.0
 44
0.0
 45
-4.4901280606
 46
4.4901280606
 79
0
 98
0
  0
LWPOLYLINE
  5
8D1
330
17
100
AcDbEntity
  8
GREEN_CORRIDOR
370
25
100
AcDbPolyline
 90
4
 70
1
 10
447.5
 20
1706.25
 10
462.5
 20
1706.25
 10
462.5
 20
1718.75
 10
447.5
 20
1718.75
  0
HATCH
  5
8D2
330
17
100
AcDbEntity
  8
HATCH_GREEN
 62
7
100
AcDbHatch
 10
0.0
 20
0.0
 30
0.0
210
0.0
220
0.0
230
1.0
  2
GRASS
 70
0
 71
0
 91
1
 92
3
 72
0
 73
1
 93
4
 10
447.5
 20
1706.25
 10
462.5
 20
1706.25
 10
462.5
 20
1718.75
 10
447.5
 20
1718.75
 97
0
 75
1
 76
1
 52
0.0
 41
1.5
 77
0
 78
3
 53
90.0
 43
0.0
 44
0.0
 45
-26.94076836
 46
26.94076836
 79
2
 49
7.14375
 49
-46.73778672
 53
45.0
 43
0.0
 44
0.0
 45
-26.9407683631
 46
26.9407683631
 79
2
 49
7.14375
 49
-30.95625
 53
135.0
 43
0.0
 44
0.0
 45
-26.9407683631
 46
-26.9407683631
 79
2
 49
7.14375
 49
-30.95625
 98
0
  0
LWPOLYLINE
  5
8D3
330
17
100
AcDbEntity
  8
BUILDINGS
370
50
100
AcDbPolyline
 90
4
 70
1
 10
440.0
 20
1770.0
 10
470.0
 20
1770.0
 10
470.0
 20
1795.0
 10
440.0
 20
1795.0
  0
HATCH
  5
8D4
330
17
100
AcDbEntity
  8
BUILDINGS
 62
7
100
AcDbHatch
 10
0.0
 20
0.0
 30
0.0
210
0.0
220
0.0
230
1.0
  2
ANSI31
 70
0
 71
0
 91
1
 92
3
 72
0
 73
1
 93
4
 10
440.0
 20
1770.0
 10
470.0
 20
1770.0
 10
470.0
 20
1795.0
 10
440.0
 20
1795.0
 97
0
 75
1
 76
1
 52
0.0
 41
2.0
 77
0
 78
1
 53
45.0
 43
0.0
 44
0.0
 45
-4.4901280606
 46
4.4901280606
 79
0
 98
0
  0
LWPOLYLINE
  5
8D5
330
17
100
AcDbEntity
  8
GREEN_CORRIDOR
370
25
100
AcDbPolyline
 90
4
 70
1
 10
447.5
 20
1776.25
 10
462.5
 20
1776.25
 10
462.5
 20
1788.75
 10
447.5
 20
1788.75
  0
HATCH
  5
8D6
330
17
100
AcDbEntity
  8
HATCH_GREEN
 62
7
100
AcDbHatch
 10
0.0
 20
0.0
 30
0.0
210
0.0
220
0.0
230
1.0
  2
GRASS
 70
0
 71
0
 91
1
 92
3
 72
0
 73
1
 93
4
 10
447.5
 20
1776.25
 10
462.5
 20
1776.25
 10
462.5
 20
1788.75
 10
447.5
 20
1788.75
 97
0
 75
1
 76
1
 52
0.0
 41
1.5
 77
0
 78
3
 53
90.0
 43
0.0
 44
0.0
 45
-26.94076836
 46
26.94076836
 79
2
 49
7.14375
 49
-46.73778672
 53
45.0
 43
0.0
 44
0.0
 45
-26.9407683631
 46
26.9407683631
 79
2
 49
7.14375
 49
-30.95625
 53
135.0
 43
0.0
 44
0.0
 45
-26.9407683631
 46
-26.9407683631
 79
2
 49
7.14375
 49
-30.95625
 98
0
  0
LWPOLYLINE
  5
8D7
330
17
100
AcDbEntity
  8
BUILDINGS
370
50
100
AcDbPolyline
 90
4
 70
1
 10
495.0
 20
1420.0
 10
525.0
 20
1420.0
 10
525.0
 20
1445.0
 10
495.0
 20
1445.0
  0
HATCH
  5
8D8
330
17
100
AcDbEntity
  8
BUILDINGS
 62
7
100
AcDbHatch
 10
0.0
 20
0.0
 30
0.0
210
0.0
220
0.0
230
1.0
  2
ANSI31
 70
0
 71
0
 91
1
 92
3
 72
0
 73
1
 93
4
 10
495.0
 20
1420.0
 10
525.0
 20
1420.0
 10
525.0
 20
1445.0
 10
495.0
 20
1445.0
 97
0
 75
1
 76
1
 52
0.0
 41
2.0
 77
0
 78
1
 53
45.0
 43
0.0
 44
0.0
 45
-4.4901280606
 46
4.4901280606
 79
0
 98
0
  0
LWPOLYLINE
  5
8D9
330
17
100
AcDbEntity
  8
GREEN_CORRIDOR
370
25
100
AcDbPolyline
 90
4
 70
1
 10
502.5
 20
1426.25
 10
517.5
 20
1426.25
 10
517.5
 20
1438.75
 10
502.5
 20
1438.75
  0
HATCH
  5
8DA
330
17
100
AcDbEntity
  8
HATCH_GREEN
 62
7
100
AcDbHatch
 10
0.0
 20
0.0
 30
0.0
210
0.0
220
0.0
230
1.0
  2
GRASS
 70
0
 71
0
 91
1
 92
3
 72
0
 73
1
 93
4
 10
502.5
 20
1426.25
 10
517.5
 20
1426.25
 10
517.5
 20
1438.75
 10
502.5
 20
1438.75
 97
0
 75
1
 76
1
 52
0.0
 41
1.5
 77
0
 78
3
 53
90.0
 43
0.0
 44
0.0
 45
-26.94076836
 46
26.94076836
 79
2
 49
7.14375
 49
-46.73778672
 53
45.0
 43
0.0
 44
0.0
 45
-26.9407683631
 46
26.9407683631
 79
2
 49
7.14375
 49
-30.95625
 53
135.0
 43
0.0
 44
0.0
 45
-26.9407683631
 46
-26.9407683631
 79
2
 49
7.14375
 49
-30.95625
 98
0
  0
LWPOLYLINE
  5
8DB
330
17
100
AcDbEntity
  8
BUILDINGS
370
50
100
AcDbPolyline
 90
4
 70
1
 10
495.0
 20
1490.0
 10
525.0
 20
1490.0
 10
525.0
 20
1515.0
 10
495.0
 20
1515.0
  0
HATCH
  5
8DC
330
17
100
AcDbEntity
  8
BUILDINGS
 62
7
100
AcDbHatch
 10
0.0
 20
0.0
 30
0.0
210
0.0
220
0.0
230
1.0
  2
ANSI31
 70
0
 71
0
 91
1
 92
3
 72
0
 73
1
 93
4
 10
495.0
 20
1490.0
 10
525.0
 20
1490.0
 10
525.0
 20
1515.0
 10
495.0
 20
1515.0
 97
0
 75
1
 76
1
 52
0.0
 41
2.0
 77
0
 78
1
 53
45.0
 43
0.0
 44
0.0
 45
-4.4901280606
 46
4.4901280606
 79
0
 98
0
  0
LWPOLYLINE
  5
8DD
330
17
100
AcDbEntity
  8
GREEN_CORRIDOR
370
25
100
AcDbPolyline
 90
4
 70
1
 10
502.5
 20
1496.25
 10
517.5
 20
1496.25
 10
517.5
 20
1508.75
 10
502.5
 20
1508.75
  0
HATCH
  5
8DE
330
17
100
AcDbEntity
  8
HATCH_GREEN
 62
7
100
AcDbHatch
 10
0.0
 20
0.0
 30
0.0
210
0.0
220
0.0
230
1.0
  2
GRASS
 70
0
 71
0
 91
1
 92
3
 72
0
 73
1
 93
4
 10
502.5
 20
1496.25
 10
517.5
 20
1496.25
 10
517.5
 20
1508.75
 10
502.5
 20
1508.75
 97
0
 75
1
 76
1
 52
0.0
 41
1.5
 77
0
 78
3
 53
90.0
 43
0.0
 44
0.0
 45
-26.94076836
 46
26.94076836
 79
2
 49
7.14375
 49
-46.73778672
 53
45.0
 43
0.0
 44
0.0
 45
-26.9407683631
 46
26.9407683631
 79
2
 49
7.14375
 49
-30.95625
 53
135.0
 43
0.0
 44
0.0
 45
-26.9407683631
 46
-26.9407683631
 79
2
 49
7.14375
 49
-30.95625
 98
0
  0
LWPOLYLINE
  5
8DF
330
17
100
AcDbEntity
  8
BUILDINGS
370
50
100
AcDbPolyline
 90
4
 70
1
 10
495.0
 20
1560.0
 10
525.0
 20
1560.0
 10
525.0
 20
1585.0
 10
495.0
 20
1585.0
  0
HATCH
  5
8E0
330
17
100
AcDbEntity
  8
BUILDINGS
 62
7
100
AcDbHatch
 10
0.0
 20
0.0
 30
0.0
210
0.0
220
0.0
230
1.0
  2
ANSI31
 70
0
 71
0
 91
1
 92
3
 72
0
 73
1
 93
4
 10
495.0
 20
1560.0
 10
525.0
 20
1560.0
 10
525.0
 20
1585.0
 10
495.0
 20
1585.0
 97
0
 75
1
 76
1
 52
0.0
 41
2.0
 77
0
 78
1
 53
45.0
 43
0.0
 44
0.0
 45
-4.4901280606
 46
4.4901280606
 79
0
 98
0
  0
LWPOLYLINE
  5
8E1
330
17
100
AcDbEntity
  8
GREEN_CORRIDOR
370
25
100
AcDbPolyline
 90
4
 70
1
 10
502.5
 20
1566.25
 10
517.5
 20
1566.25
 10
517.5
 20
1578.75
 10
502.5
 20
1578.75
  0
HATCH
  5
8E2
330
17
100
AcDbEntity
  8
HATCH_GREEN
 62
7
100
AcDbHatch
 10
0.0
 20
0.0
 30
0.0
210
0.0
220
0.0
230
1.0
  2
GRASS
 70
0
 71
0
 91
1
 92
3
 72
0
 73
1
 93
4
 10
502.5
 20
1566.25
 10
517.5
 20
1566.25
 10
517.5
 20
1578.75
 10
502.5
 20
1578.75
 97
0
 75
1
 76
1
 52
0.0
 41
1.5
 77
0
 78
3
 53
90.0
 43
0.0
 44
0.0
 45
-26.94076836
 46
26.94076836
 79
2
 49
7.14375
 49
-46.73778672
 53
45.0
 43
0.0
 44
0.0
 45
-26.9407683631
 46
26.9407683631
 79
2
 49
7.14375
 49
-30.95625
 53
135.0
 43
0.0
 44
0.0
 45
-26.9407683631
 46
-26.9407683631
 79
2
 49
7.14375
 49
-30.95625
 98
0
  0
LWPOLYLINE
  5
8E3
330
17
100
AcDbEntity
  8
BUILDINGS
370
50
100
AcDbPolyline
 90
4
 70
1
 10
495.0
 20
1630.0
 10
525.0
 20
1630.0
 10
525.0
 20
1655.0
 10
495.0
 20
1655.0
  0
HATCH
  5
8E4
330
17
100
AcDbEntity
  8
BUILDINGS
 62
7
100
AcDbHatch
 10
0.0
 20
0.0
 30
0.0
210
0.0
220
0.0
230
1.0
  2
ANSI31
 70
0
 71
0
 91
1
 92
3
 72
0
 73
1
 93
4
 10
495.0
 20
1630.0
 10
525.0
 20
1630.0
 10
525.0
 20
1655.0
 10
495.0
 20
1655.0
 97
0
 75
1
 76
1
 52
0.0
 41
2.0
 77
0
 78
1
 53
45.0
 43
0.0
 44
0.0
 45
-4.4901280606
 46
4.4901280606
 79
0
 98
0
  0
LWPOLYLINE
  5
8E5
330
17
100
AcDbEntity
  8
GREEN_CORRIDOR
370
25
100
AcDbPolyline
 90
4
 70
1
 10
502.5
 20
1636.25
 10
517.5
 20
1636.25
 10
517.5
 20
1648.75
 10
502.5
 20
1648.75
  0
HATCH
  5
8E6
330
17
100
AcDbEntity
  8
HATCH_GREEN
 62
7
100
AcDbHatch
 10
0.0
 20
0.0
 30
0.0
210
0.0
220
0.0
230
1.0
  2
GRASS
 70
0
 71
0
 91
1
 92
3
 72
0
 73
1
 93
4
 10
502.5
 20
1636.25
 10
517.5
 20
1636.25
 10
517.5
 20
1648.75
 10
502.5
 20
1648.75
 97
0
 75
1
 76
1
 52
0.0
 41
1.5
 77
0
 78
3
 53
90.0
 43
0.0
 44
0.0
 45
-26.94076836
 46
26.94076836
 79
2
 49
7.14375
 49
-46.73778672
 53
45.0
 43
0.0
 44
0.0
 45
-26.9407683631
 46
26.9407683631
 79
2
 49
7.14375
 49
-30.95625
 53
135.0
 43
0.0
 44
0.0
 45
-26.9407683631
 46
-26.9407683631
 79
2
 49
7.14375
 49
-30.95625
 98
0
  0
LWPOLYLINE
  5
8E7
330
17
100
AcDbEntity
  8
BUILDINGS
370
50
100
AcDbPolyline
 90
4
 70
1
 10
495.0
 20
1700.0
 10
525.0
 20
1700.0
 10
525.0
 20
1725.0
 10
495.0
 20
1725.0
  0
HATCH
  5
8E8
330
17
100
AcDbEntity
  8
BUILDINGS
 62
7
100
AcDbHatch
 10
0.0
 20
0.0
 30
0.0
210
0.0
220
0.0
230
1.0
  2
ANSI31
 70
0
 71
0
 91
1
 92
3
 72
0
 73
1
 93
4
 10
495.0
 20
1700.0
 10
525.0
 20
1700.0
 10
525.0
 20
1725.0
 10
495.0
 20
1725.0
 97
0
 75
1
 76
1
 52
0.0
 41
2.0
 77
0
 78
1
 53
45.0
 43
0.0
 44
0.0
 45
-4.4901280606
 46
4.4901280606
 79
0
 98
0
  0
LWPOLYLINE
  5
8E9
330
17
100
AcDbEntity
  8
GREEN_CORRIDOR
370
25
100
AcDbPolyline
 90
4
 70
1
 10
502.5
 20
1706.25
 10
517.5
 20
1706.25
 10
517.5
 20
1718.75
 10
502.5
 20
1718.75
  0
HATCH
  5
8EA
330
17
100
AcDbEntity
  8
HATCH_GREEN
 62
7
100
AcDbHatch
 10
0.0
 20
0.0
 30
0.0
210
0.0
220
0.0
230
1.0
  2
GRASS
 70
0
 71
0
 91
1
 92
3
 72
0
 73
1
 93
4
 10
502.5
 20
1706.25
 10
517.5
 20
1706.25
 10
517.5
 20
1718.75
 10
502.5
 20
1718.75
 97
0
 75
1
 76
1
 52
0.0
 41
1.5
 77
0
 78
3
 53
90.0
 43
0.0
 44
0.0
 45
-26.94076836
 46
26.94076836
 79
2
 49
7.14375
 49
-46.73778672
 53
45.0
 43
0.0
 44
0.0
 45
-26.9407683631
 46
26.9407683631
 79
2
 49
7.14375
 49
-30.95625
 53
135.0
 43
0.0
 44
0.0
 45
-26.9407683631
 46
-26.9407683631
 79
2
 49
7.14375
 49
-30.95625
 98
0
  0
LWPOLYLINE
  5
8EB
330
17
100
AcDbEntity
  8
BUILDINGS
370
50
100
AcDbPolyline
 90
4
 70
1
 10
495.0
 20
1770.0
 10
525.0
 20
1770.0
 10
525.0
 20
1795.0
 10
495.0
 20
1795.0
  0
HATCH
  5
8EC
330
17
100
AcDbEntity
  8
BUILDINGS
 62
7
100
AcDbHatch
 10
0.0
 20
0.0
 30
0.0
210
0.0
220
0.0
230
1.0
  2
ANSI31
 70
0
 71
0
 91
1
 92
3
 72
0
 73
1
 93
4
 10
495.0
 20
1770.0
 10
525.0
 20
1770.0
 10
525.0
 20
1795.0
 10
495.0
 20
1795.0
 97
0
 75
1
 76
1
 52
0.0
 41
2.0
 77
0
 78
1
 53
45.0
 43
0.0
 44
0.0
 45
-4.4901280606
 46
4.4901280606
 79
0
 98
0
  0
LWPOLYLINE
  5
8ED
330
17
100
AcDbEntity
  8
GREEN_CORRIDOR
370
25
100
AcDbPolyline
 90
4
 70
1
 10
502.5
 20
1776.25
 10
517.5
 20
1776.25
 10
517.5
 20
1788.75
 10
502.5
 20
1788.75
  0
HATCH
  5
8EE
330
17
100
AcDbEntity
  8
HATCH_GREEN
 62
7
100
AcDbHatch
 10
0.0
 20
0.0
 30
0.0
210
0.0
220
0.0
230
1.0
  2
GRASS
 70
0
 71
0
 91
1
 92
3
 72
0
 73
1
 93
4
 10
502.5
 20
1776.25
 10
517.5
 20
1776.25
 10
517.5
 20
1788.75
 10
502.5
 20
1788.75
 97
0
 75
1
 76
1
 52
0.0
 41
1.5
 77
0
 78
3
 53
90.0
 43
0.0
 44
0.0
 45
-26.94076836
 46
26.94076836
 79
2
 49
7.14375
 49
-46.73778672
 53
45.0
 43
0.0
 44
0.0
 45
-26.9407683631
 46
26.9407683631
 79
2
 49
7.14375
 49
-30.95625
 53
135.0
 43
0.0
 44
0.0
 45
-26.9407683631
 46
-26.9407683631
 79
2
 49
7.14375
 49
-30.95625
 98
0
  0
LWPOLYLINE
  5
8EF
330
17
100
AcDbEntity
  8
BUILDINGS
370
50
100
AcDbPolyline
 90
4
 70
1
 10
550.0
 20
1420.0
 10
580.0
 20
1420.0
 10
580.0
 20
1445.0
 10
550.0
 20
1445.0
  0
HATCH
  5
8F0
330
17
100
AcDbEntity
  8
BUILDINGS
 62
7
100
AcDbHatch
 10
0.0
 20
0.0
 30
0.0
210
0.0
220
0.0
230
1.0
  2
ANSI31
 70
0
 71
0
 91
1
 92
3
 72
0
 73
1
 93
4
 10
550.0
 20
1420.0
 10
580.0
 20
1420.0
 10
580.0
 20
1445.0
 10
550.0
 20
1445.0
 97
0
 75
1
 76
1
 52
0.0
 41
2.0
 77
0
 78
1
 53
45.0
 43
0.0
 44
0.0
 45
-4.4901280606
 46
4.4901280606
 79
0
 98
0
  0
LWPOLYLINE
  5
8F1
330
17
100
AcDbEntity
  8
GREEN_CORRIDOR
370
25
100
AcDbPolyline
 90
4
 70
1
 10
557.5
 20
1426.25
 10
572.5
 20
1426.25
 10
572.5
 20
1438.75
 10
557.5
 20
1438.75
  0
HATCH
  5
8F2
330
17
100
AcDbEntity
  8
HATCH_GREEN
 62
7
100
AcDbHatch
 10
0.0
 20
0.0
 30
0.0
210
0.0
220
0.0
230
1.0
  2
GRASS
 70
0
 71
0
 91
1
 92
3
 72
0
 73
1
 93
4
 10
557.5
 20
1426.25
 10
572.5
 20
1426.25
 10
572.5
 20
1438.75
 10
557.5
 20
1438.75
 97
0
 75
1
 76
1
 52
0.0
 41
1.5
 77
0
 78
3
 53
90.0
 43
0.0
 44
0.0
 45
-26.94076836
 46
26.94076836
 79
2
 49
7.14375
 49
-46.73778672
 53
45.0
 43
0.0
 44
0.0
 45
-26.9407683631
 46
26.9407683631
 79
2
 49
7.14375
 49
-30.95625
 53
135.0
 43
0.0
 44
0.0
 45
-26.9407683631
 46
-26.9407683631
 79
2
 49
7.14375
 49
-30.95625
 98
0
  0
LWPOLYLINE
  5
8F3
330
17
100
AcDbEntity
  8
BUILDINGS
370
50
100
AcDbPolyline
 90
4
 70
1
 10
550.0
 20
1490.0
 10
580.0
 20
1490.0
 10
580.0
 20
1515.0
 10
550.0
 20
1515.0
  0
HATCH
  5
8F4
330
17
100
AcDbEntity
  8
BUILDINGS
 62
7
100
AcDbHatch
 10
0.0
 20
0.0
 30
0.0
210
0.0
220
0.0
230
1.0
  2
ANSI31
 70
0
 71
0
 91
1
 92
3
 72
0
 73
1
 93
4
 10
550.0
 20
1490.0
 10
580.0
 20
1490.0
 10
580.0
 20
1515.0
 10
550.0
 20
1515.0
 97
0
 75
1
 76
1
 52
0.0
 41
2.0
 77
0
 78
1
 53
45.0
 43
0.0
 44
0.0
 45
-4.4901280606
 46
4.4901280606
 79
0
 98
0
  0
LWPOLYLINE
  5
8F5
330
17
100
AcDbEntity
  8
GREEN_CORRIDOR
370
25
100
AcDbPolyline
 90
4
 70
1
 10
557.5
 20
1496.25
 10
572.5
 20
1496.25
 10
572.5
 20
1508.75
 10
557.5
 20
1508.75
  0
HATCH
  5
8F6
330
17
100
AcDbEntity
  8
HATCH_GREEN
 62
7
100
AcDbHatch
 10
0.0
 20
0.0
 30
0.0
210
0.0
220
0.0
230
1.0
  2
GRASS
 70
0
 71
0
 91
1
 92
3
 72
0
 73
1
 93
4
 10
557.5
 20
1496.25
 10
572.5
 20
1496.25
 10
572.5
 20
1508.75
 10
557.5
 20
1508.75
 97
0
 75
1
 76
1
 52
0.0
 41
1.5
 77
0
 78
3
 53
90.0
 43
0.0
 44
0.0
 45
-26.94076836
 46
26.94076836
 79
2
 49
7.14375
 49
-46.73778672
 53
45.0
 43
0.0
 44
0.0
 45
-26.9407683631
 46
26.9407683631
 79
2
 49
7.14375
 49
-30.95625
 53
135.0
 43
0.0
 44
0.0
 45
-26.9407683631
 46
-26.9407683631
 79
2
 49
7.14375
 49
-30.95625
 98
0
  0
LWPOLYLINE
  5
8F7
330
17
100
AcDbEntity
  8
BUILDINGS
370
50
100
AcDbPolyline
 90
4
 70
1
 10
550.0
 20
1560.0
 10
580.0
 20
1560.0
 10
580.0
 20
1585.0
 10
550.0
 20
1585.0
  0
HATCH
  5
8F8
330
17
100
AcDbEntity
  8
BUILDINGS
 62
7
100
AcDbHatch
 10
0.0
 20
0.0
 30
0.0
210
0.0
220
0.0
230
1.0
  2
ANSI31
 70
0
 71
0
 91
1
 92
3
 72
0
 73
1
 93
4
 10
550.0
 20
1560.0
 10
580.0
 20
1560.0
 10
580.0
 20
1585.0
 10
550.0
 20
1585.0
 97
0
 75
1
 76
1
 52
0.0
 41
2.0
 77
0
 78
1
 53
45.0
 43
0.0
 44
0.0
 45
-4.4901280606
 46
4.4901280606
 79
0
 98
0
  0
LWPOLYLINE
  5
8F9
330
17
100
AcDbEntity
  8
GREEN_CORRIDOR
370
25
100
AcDbPolyline
 90
4
 70
1
 10
557.5
 20
1566.25
 10
572.5
 20
1566.25
 10
572.5
 20
1578.75
 10
557.5
 20
1578.75
  0
HATCH
  5
8FA
330
17
100
AcDbEntity
  8
HATCH_GREEN
 62
7
100
AcDbHatch
 10
0.0
 20
0.0
 30
0.0
210
0.0
220
0.0
230
1.0
  2
GRASS
 70
0
 71
0
 91
1
 92
3
 72
0
 73
1
 93
4
 10
557.5
 20
1566.25
 10
572.5
 20
1566.25
 10
572.5
 20
1578.75
 10
557.5
 20
1578.75
 97
0
 75
1
 76
1
 52
0.0
 41
1.5
 77
0
 78
3
 53
90.0
 43
0.0
 44
0.0
 45
-26.94076836
 46
26.94076836
 79
2
 49
7.14375
 49
-46.73778672
 53
45.0
 43
0.0
 44
0.0
 45
-26.9407683631
 46
26.9407683631
 79
2
 49
7.14375
 49
-30.95625
 53
135.0
 43
0.0
 44
0.0
 45
-26.9407683631
 46
-26.9407683631
 79
2
 49
7.14375
 49
-30.95625
 98
0
  0
LWPOLYLINE
  5
8FB
330
17
100
AcDbEntity
  8
BUILDINGS
370
50
100
AcDbPolyline
 90
4
 70
1
 10
550.0
 20
1630.0
 10
580.0
 20
1630.0
 10
580.0
 20
1655.0
 10
550.0
 20
1655.0
  0
HATCH
  5
8FC
330
17
100
AcDbEntity
  8
BUILDINGS
 62
7
100
AcDbHatch
 10
0.0
 20
0.0
 30
0.0
210
0.0
220
0.0
230
1.0
  2
ANSI31
 70
0
 71
0
 91
1
 92
3
 72
0
 73
1
 93
4
 10
550.0
 20
1630.0
 10
580.0
 20
1630.0
 10
580.0
 20
1655.0
 10
550.0
 20
1655.0
 97
0
 75
1
 76
1
 52
0.0
 41
2.0
 77
0
 78
1
 53
45.0
 43
0.0
 44
0.0
 45
-4.4901280606
 46
4.4901280606
 79
0
 98
0
  0
LWPOLYLINE
  5
8FD
330
17
100
AcDbEntity
  8
GREEN_CORRIDOR
370
25
100
AcDbPolyline
 90
4
 70
1
 10
557.5
 20
1636.25
 10
572.5
 20
1636.25
 10
572.5
 20
1648.75
 10
557.5
 20
1648.75
  0
HATCH
  5
8FE
330
17
100
AcDbEntity
  8
HATCH_GREEN
 62
7
100
AcDbHatch
 10
0.0
 20
0.0
 30
0.0
210
0.0
220
0.0
230
1.0
  2
GRASS
 70
0
 71
0
 91
1
 92
3
 72
0
 73
1
 93
4
 10
557.5
 20
1636.25
 10
572.5
 20
1636.25
 10
572.5
 20
1648.75
 10
557.5
 20
1648.75
 97
0
 75
1
 76
1
 52
0.0
 41
1.5
 77
0
 78
3
 53
90.0
 43
0.0
 44
0.0
 45
-26.94076836
 46
26.94076836
 79
2
 49
7.14375
 49
-46.73778672
 53
45.0
 43
0.0
 44
0.0
 45
-26.9407683631
 46
26.9407683631
 79
2
 49
7.14375
 49
-30.95625
 53
135.0
 43
0.0
 44
0.0
 45
-26.9407683631
 46
-26.9407683631
 79
2
 49
7.14375
 49
-30.95625
 98
0
  0
LWPOLYLINE
  5
8FF
330
17
100
AcDbEntity
  8
BUILDINGS
370
50
100
AcDbPolyline
 90
4
 70
1
 10
550.0
 20
1700.0
 10
580.0
 20
1700.0
 10
580.0
 20
1725.0
 10
550.0
 20
1725.0
  0
HATCH
  5
900
330
17
100
AcDbEntity
  8
BUILDINGS
 62
7
100
AcDbHatch
 10
0.0
 20
0.0
 30
0.0
210
0.0
220
0.0
230
1.0
  2
ANSI31
 70
0
 71
0
 91
1
 92
3
 72
0
 73
1
 93
4
 10
550.0
 20
1700.0
 10
580.0
 20
1700.0
 10
580.0
 20
1725.0
 10
550.0
 20
1725.0
 97
0
 75
1
 76
1
 52
0.0
 41
2.0
 77
0
 78
1
 53
45.0
 43
0.0
 44
0.0
 45
-4.4901280606
 46
4.4901280606
 79
0
 98
0
  0
LWPOLYLINE
  5
901
330
17
100
AcDbEntity
  8
GREEN_CORRIDOR
370
25
100
AcDbPolyline
 90
4
 70
1
 10
557.5
 20
1706.25
 10
572.5
 20
1706.25
 10
572.5
 20
1718.75
 10
557.5
 20
1718.75
  0
HATCH
  5
902
330
17
100
AcDbEntity
  8
HATCH_GREEN
 62
7
100
AcDbHatch
 10
0.0
 20
0.0
 30
0.0
210
0.0
220
0.0
230
1.0
  2
GRASS
 70
0
 71
0
 91
1
 92
3
 72
0
 73
1
 93
4
 10
557.5
 20
1706.25
 10
572.5
 20
1706.25
 10
572.5
 20
1718.75
 10
557.5
 20
1718.75
 97
0
 75
1
 76
1
 52
0.0
 41
1.5
 77
0
 78
3
 53
90.0
 43
0.0
 44
0.0
 45
-26.94076836
 46
26.94076836
 79
2
 49
7.14375
 49
-46.73778672
 53
45.0
 43
0.0
 44
0.0
 45
-26.9407683631
 46
26.9407683631
 79
2
 49
7.14375
 49
-30.95625
 53
135.0
 43
0.0
 44
0.0
 45
-26.9407683631
 46
-26.9407683631
 79
2
 49
7.14375
 49
-30.95625
 98
0
  0
LWPOLYLINE
  5
903
330
17
100
AcDbEntity
  8
BUILDINGS
370
50
100
AcDbPolyline
 90
4
 70
1
 10
550.0
 20
1770.0
 10
580.0
 20
1770.0
 10
580.0
 20
1795.0
 10
550.0
 20
1795.0
  0
HATCH
  5
904
330
17
100
AcDbEntity
  8
BUILDINGS
 62
7
100
AcDbHatch
 10
0.0
 20
0.0
 30
0.0
210
0.0
220
0.0
230
1.0
  2
ANSI31
 70
0
 71
0
 91
1
 92
3
 72
0
 73
1
 93
4
 10
550.0
 20
1770.0
 10
580.0
 20
1770.0
 10
580.0
 20
1795.0
 10
550.0
 20
1795.0
 97
0
 75
1
 76
1
 52
0.0
 41
2.0
 77
0
 78
1
 53
45.0
 43
0.0
 44
0.0
 45
-4.4901280606
 46
4.4901280606
 79
0
 98
0
  0
LWPOLYLINE
  5
905
330
17
100
AcDbEntity
  8
GREEN_CORRIDOR
370
25
100
AcDbPolyline
 90
4
 70
1
 10
557.5
 20
1776.25
 10
572.5
 20
1776.25
 10
572.5
 20
1788.75
 10
557.5
 20
1788.75
  0
HATCH
  5
906
330
17
100
AcDbEntity
  8
HATCH_GREEN
 62
7
100
AcDbHatch
 10
0.0
 20
0.0
 30
0.0
210
0.0
220
0.0
230
1.0
  2
GRASS
 70
0
 71
0
 91
1
 92
3
 72
0
 73
1
 93
4
 10
557.5
 20
1776.25
 10
572.5
 20
1776.25
 10
572.5
 20
1788.75
 10
557.5
 20
1788.75
 97
0
 75
1
 76
1
 52
0.0
 41
1.5
 77
0
 78
3
 53
90.0
 43
0.0
 44
0.0
 45
-26.94076836
 46
26.94076836
 79
2
 49
7.14375
 49
-46.73778672
 53
45.0
 43
0.0
 44
0.0
 45
-26.9407683631
 46
26.9407683631
 79
2
 49
7.14375
 49
-30.95625
 53
135.0
 43
0.0
 44
0.0
 45
-26.9407683631
 46
-26.9407683631
 79
2
 49
7.14375
 49
-30.95625
 98
0
  0
LWPOLYLINE
  5
907
330
17
100
AcDbEntity
  8
BUILDINGS
370
50
100
AcDbPolyline
 90
4
 70
1
 10
605.0
 20
1420.0
 10
635.0
 20
1420.0
 10
635.0
 20
1445.0
 10
605.0
 20
1445.0
  0
HATCH
  5
908
330
17
100
AcDbEntity
  8
BUILDINGS
 62
7
100
AcDbHatch
 10
0.0
 20
0.0
 30
0.0
210
0.0
220
0.0
230
1.0
  2
ANSI31
 70
0
 71
0
 91
1
 92
3
 72
0
 73
1
 93
4
 10
605.0
 20
1420.0
 10
635.0
 20
1420.0
 10
635.0
 20
1445.0
 10
605.0
 20
1445.0
 97
0
 75
1
 76
1
 52
0.0
 41
2.0
 77
0
 78
1
 53
45.0
 43
0.0
 44
0.0
 45
-4.4901280606
 46
4.4901280606
 79
0
 98
0
  0
LWPOLYLINE
  5
909
330
17
100
AcDbEntity
  8
GREEN_CORRIDOR
370
25
100
AcDbPolyline
 90
4
 70
1
 10
612.5
 20
1426.25
 10
627.5
 20
1426.25
 10
627.5
 20
1438.75
 10
612.5
 20
1438.75
  0
HATCH
  5
90A
330
17
100
AcDbEntity
  8
HATCH_GREEN
 62
7
100
AcDbHatch
 10
0.0
 20
0.0
 30
0.0
210
0.0
220
0.0
230
1.0
  2
GRASS
 70
0
 71
0
 91
1
 92
3
 72
0
 73
1
 93
4
 10
612.5
 20
1426.25
 10
627.5
 20
1426.25
 10
627.5
 20
1438.75
 10
612.5
 20
1438.75
 97
0
 75
1
 76
1
 52
0.0
 41
1.5
 77
0
 78
3
 53
90.0
 43
0.0
 44
0.0
 45
-26.94076836
 46
26.94076836
 79
2
 49
7.14375
 49
-46.73778672
 53
45.0
 43
0.0
 44
0.0
 45
-26.9407683631
 46
26.9407683631
 79
2
 49
7.14375
 49
-30.95625
 53
135.0
 43
0.0
 44
0.0
 45
-26.9407683631
 46
-26.9407683631
 79
2
 49
7.14375
 49
-30.95625
 98
0
  0
LWPOLYLINE
  5
90B
330
17
100
AcDbEntity
  8
BUILDINGS
370
50
100
AcDbPolyline
 90
4
 70
1
 10
605.0
 20
1490.0
 10
635.0
 20
1490.0
 10
635.0
 20
1515.0
 10
605.0
 20
1515.0
  0
HATCH
  5
90C
330
17
100
AcDbEntity
  8
BUILDINGS
 62
7
100
AcDbHatch
 10
0.0
 20
0.0
 30
0.0
210
0.0
220
0.0
230
1.0
  2
ANSI31
 70
0
 71
0
 91
1
 92
3
 72
0
 73
1
 93
4
 10
605.0
 20
1490.0
 10
635.0
 20
1490.0
 10
635.0
 20
1515.0
 10
605.0
 20
1515.0
 97
0
 75
1
 76
1
 52
0.0
 41
2.0
 77
0
 78
1
 53
45.0
 43
0.0
 44
0.0
 45
-4.4901280606
 46
4.4901280606
 79
0
 98
0
  0
LWPOLYLINE
  5
90D
330
17
100
AcDbEntity
  8
GREEN_CORRIDOR
370
25
100
AcDbPolyline
 90
4
 70
1
 10
612.5
 20
1496.25
 10
627.5
 20
1496.25
 10
627.5
 20
1508.75
 10
612.5
 20
1508.75
  0
HATCH
  5
90E
330
17
100
AcDbEntity
  8
HATCH_GREEN
 62
7
100
AcDbHatch
 10
0.0
 20
0.0
 30
0.0
210
0.0
220
0.0
230
1.0
  2
GRASS
 70
0
 71
0
 91
1
 92
3
 72
0
 73
1
 93
4
 10
612.5
 20
1496.25
 10
627.5
 20
1496.25
 10
627.5
 20
1508.75
 10
612.5
 20
1508.75
 97
0
 75
1
 76
1
 52
0.0
 41
1.5
 77
0
 78
3
 53
90.0
 43
0.0
 44
0.0
 45
-26.94076836
 46
26.94076836
 79
2
 49
7.14375
 49
-46.73778672
 53
45.0
 43
0.0
 44
0.0
 45
-26.9407683631
 46
26.9407683631
 79
2
 49
7.14375
 49
-30.95625
 53
135.0
 43
0.0
 44
0.0
 45
-26.9407683631
 46
-26.9407683631
 79
2
 49
7.14375
 49
-30.95625
 98
0
  0
LWPOLYLINE
  5
90F
330
17
100
AcDbEntity
  8
BUILDINGS
370
50
100
AcDbPolyline
 90
4
 70
1
 10
605.0
 20
1560.0
 10
635.0
 20
1560.0
 10
635.0
 20
1585.0
 10
605.0
 20
1585.0
  0
HATCH
  5
910
330
17
100
AcDbEntity
  8
BUILDINGS
 62
7
100
AcDbHatch
 10
0.0
 20
0.0
 30
0.0
210
0.0
220
0.0
230
1.0
  2
ANSI31
 70
0
 71
0
 91
1
 92
3
 72
0
 73
1
 93
4
 10
605.0
 20
1560.0
 10
635.0
 20
1560.0
 10
635.0
 20
1585.0
 10
605.0
 20
1585.0
 97
0
 75
1
 76
1
 52
0.0
 41
2.0
 77
0
 78
1
 53
45.0
 43
0.0
 44
0.0
 45
-4.4901280606
 46
4.4901280606
 79
0
 98
0
  0
LWPOLYLINE
  5
911
330
17
100
AcDbEntity
  8
GREEN_CORRIDOR
370
25
100
AcDbPolyline
 90
4
 70
1
 10
612.5
 20
1566.25
 10
627.5
 20
1566.25
 10
627.5
 20
1578.75
 10
612.5
 20
1578.75
  0
HATCH
  5
912
330
17
100
AcDbEntity
  8
HATCH_GREEN
 62
7
100
AcDbHatch
 10
0.0
 20
0.0
 30
0.0
210
0.0
220
0.0
230
1.0
  2
GRASS
 70
0
 71
0
 91
1
 92
3
 72
0
 73
1
 93
4
 10
612.5
 20
1566.25
 10
627.5
 20
1566.25
 10
627.5
 20
1578.75
 10
612.5
 20
1578.75
 97
0
 75
1
 76
1
 52
0.0
 41
1.5
 77
0
 78
3
 53
90.0
 43
0.0
 44
0.0
 45
-26.94076836
 46
26.94076836
 79
2
 49
7.14375
 49
-46.73778672
 53
45.0
 43
0.0
 44
0.0
 45
-26.9407683631
 46
26.9407683631
 79
2
 49
7.14375
 49
-30.95625
 53
135.0
 43
0.0
 44
0.0
 45
-26.9407683631
 46
-26.9407683631
 79
2
 49
7.14375
 49
-30.95625
 98
0
  0
LWPOLYLINE
  5
913
330
17
100
AcDbEntity
  8
BUILDINGS
370
50
100
AcDbPolyline
 90
4
 70
1
 10
605.0
 20
1630.0
 10
635.0
 20
1630.0
 10
635.0
 20
1655.0
 10
605.0
 20
1655.0
  0
HATCH
  5
914
330
17
100
AcDbEntity
  8
BUILDINGS
 62
7
100
AcDbHatch
 10
0.0
 20
0.0
 30
0.0
210
0.0
220
0.0
230
1.0
  2
ANSI31
 70
0
 71
0
 91
1
 92
3
 72
0
 73
1
 93
4
 10
605.0
 20
1630.0
 10
635.0
 20
1630.0
 10
635.0
 20
1655.0
 10
605.0
 20
1655.0
 97
0
 75
1
 76
1
 52
0.0
 41
2.0
 77
0
 78
1
 53
45.0
 43
0.0
 44
0.0
 45
-4.4901280606
 46
4.4901280606
 79
0
 98
0
  0
LWPOLYLINE
  5
915
330
17
100
AcDbEntity
  8
GREEN_CORRIDOR
370
25
100
AcDbPolyline
 90
4
 70
1
 10
612.5
 20
1636.25
 10
627.5
 20
1636.25
 10
627.5
 20
1648.75
 10
612.5
 20
1648.75
  0
HATCH
  5
916
330
17
100
AcDbEntity
  8
HATCH_GREEN
 62
7
100
AcDbHatch
 10
0.0
 20
0.0
 30
0.0
210
0.0
220
0.0
230
1.0
  2
GRASS
 70
0
 71
0
 91
1
 92
3
 72
0
 73
1
 93
4
 10
612.5
 20
1636.25
 10
627.5
 20
1636.25
 10
627.5
 20
1648.75
 10
612.5
 20
1648.75
 97
0
 75
1
 76
1
 52
0.0
 41
1.5
 77
0
 78
3
 53
90.0
 43
0.0
 44
0.0
 45
-26.94076836
 46
26.94076836
 79
2
 49
7.14375
 49
-46.73778672
 53
45.0
 43
0.0
 44
0.0
 45
-26.9407683631
 46
26.9407683631
 79
2
 49
7.14375
 49
-30.95625
 53
135.0
 43
0.0
 44
0.0
 45
-26.9407683631
 46
-26.9407683631
 79
2
 49
7.14375
 49
-30.95625
 98
0
  0
LWPOLYLINE
  5
917
330
17
100
AcDbEntity
  8
BUILDINGS
370
50
100
AcDbPolyline
 90
4
 70
1
 10
605.0
 20
1700.0
 10
635.0
 20
1700.0
 10
635.0
 20
1725.0
 10
605.0
 20
1725.0
  0
HATCH
  5
918
330
17
100
AcDbEntity
  8
BUILDINGS
 62
7
100
AcDbHatch
 10
0.0
 20
0.0
 30
0.0
210
0.0
220
0.0
230
1.0
  2
ANSI31
 70
0
 71
0
 91
1
 92
3
 72
0
 73
1
 93
4
 10
605.0
 20
1700.0
 10
635.0
 20
1700.0
 10
635.0
 20
1725.0
 10
605.0
 20
1725.0
 97
0
 75
1
 76
1
 52
0.0
 41
2.0
 77
0
 78
1
 53
45.0
 43
0.0
 44
0.0
 45
-4.4901280606
 46
4.4901280606
 79
0
 98
0
  0
LWPOLYLINE
  5
919
330
17
100
AcDbEntity
  8
GREEN_CORRIDOR
370
25
100
AcDbPolyline
 90
4
 70
1
 10
612.5
 20
1706.25
 10
627.5
 20
1706.25
 10
627.5
 20
1718.75
 10
612.5
 20
1718.75
  0
HATCH
  5
91A
330
17
100
AcDbEntity
  8
HATCH_GREEN
 62
7
100
AcDbHatch
 10
0.0
 20
0.0
 30
0.0
210
0.0
220
0.0
230
1.0
  2
GRASS
 70
0
 71
0
 91
1
 92
3
 72
0
 73
1
 93
4
 10
612.5
 20
1706.25
 10
627.5
 20
1706.25
 10
627.5
 20
1718.75
 10
612.5
 20
1718.75
 97
0
 75
1
 76
1
 52
0.0
 41
1.5
 77
0
 78
3
 53
90.0
 43
0.0
 44
0.0
 45
-26.94076836
 46
26.94076836
 79
2
 49
7.14375
 49
-46.73778672
 53
45.0
 43
0.0
 44
0.0
 45
-26.9407683631
 46
26.9407683631
 79
2
 49
7.14375
 49
-30.95625
 53
135.0
 43
0.0
 44
0.0
 45
-26.9407683631
 46
-26.9407683631
 79
2
 49
7.14375
 49
-30.95625
 98
0
  0
LWPOLYLINE
  5
91B
330
17
100
AcDbEntity
  8
BUILDINGS
370
50
100
AcDbPolyline
 90
4
 70
1
 10
605.0
 20
1770.0
 10
635.0
 20
1770.0
 10
635.0
 20
1795.0
 10
605.0
 20
1795.0
  0
HATCH
  5
91C
330
17
100
AcDbEntity
  8
BUILDINGS
 62
7
100
AcDbHatch
 10
0.0
 20
0.0
 30
0.0
210
0.0
220
0.0
230
1.0
  2
ANSI31
 70
0
 71
0
 91
1
 92
3
 72
0
 73
1
 93
4
 10
605.0
 20
1770.0
 10
635.0
 20
1770.0
 10
635.0
 20
1795.0
 10
605.0
 20
1795.0
 97
0
 75
1
 76
1
 52
0.0
 41
2.0
 77
0
 78
1
 53
45.0
 43
0.0
 44
0.0
 45
-4.4901280606
 46
4.4901280606
 79
0
 98
0
  0
LWPOLYLINE
  5
91D
330
17
100
AcDbEntity
  8
GREEN_CORRIDOR
370
25
100
AcDbPolyline
 90
4
 70
1
 10
612.5
 20
1776.25
 10
627.5
 20
1776.25
 10
627.5
 20
1788.75
 10
612.5
 20
1788.75
  0
HATCH
  5
91E
330
17
100
AcDbEntity
  8
HATCH_GREEN
 62
7
100
AcDbHatch
 10
0.0
 20
0.0
 30
0.0
210
0.0
220
0.0
230
1.0
  2
GRASS
 70
0
 71
0
 91
1
 92
3
 72
0
 73
1
 93
4
 10
612.5
 20
1776.25
 10
627.5
 20
1776.25
 10
627.5
 20
1788.75
 10
612.5
 20
1788.75
 97
0
 75
1
 76
1
 52
0.0
 41
1.5
 77
0
 78
3
 53
90.0
 43
0.0
 44
0.0
 45
-26.94076836
 46
26.94076836
 79
2
 49
7.14375
 49
-46.73778672
 53
45.0
 43
0.0
 44
0.0
 45
-26.9407683631
 46
26.9407683631
 79
2
 49
7.14375
 49
-30.95625
 53
135.0
 43
0.0
 44
0.0
 45
-26.9407683631
 46
-26.9407683631
 79
2
 49
7.14375
 49
-30.95625
 98
0
  0
LWPOLYLINE
  5
91F
330
17
100
AcDbEntity
  8
BUILDINGS
370
50
100
AcDbPolyline
 90
4
 70
1
 10
1230.0
 20
1430.0
 10
1310.0
 20
1430.0
 10
1310.0
 20
1490.0
 10
1230.0
 20
1490.0
  0
HATCH
  5
920
330
17
100
AcDbEntity
  8
BUILDINGS
 62
7
100
AcDbHatch
 10
0.0
 20
0.0
 30
0.0
210
0.0
220
0.0
230
1.0
  2
ANSI31
 70
0
 71
0
 91
1
 92
3
 72
0
 73
1
 93
4
 10
1230.0
 20
1430.0
 10
1310.0
 20
1430.0
 10
1310.0
 20
1490.0
 10
1230.0
 20
1490.0
 97
0
 75
1
 76
1
 52
0.0
 41
2.0
 77
0
 78
1
 53
45.0
 43
0.0
 44
0.0
 45
-4.4901280606
 46
4.4901280606
 79
0
 98
0
  0
LWPOLYLINE
  5
921
330
17
100
AcDbEntity
  8
GREEN_CORRIDOR
370
25
100
AcDbPolyline
 90
4
 70
1
 10
1250.0
 20
1445.0
 10
1290.0
 20
1445.0
 10
1290.0
 20
1475.0
 10
1250.0
 20
1475.0
  0
HATCH
  5
922
330
17
100
AcDbEntity
  8
HATCH_GREEN
 62
7
100
AcDbHatch
 10
0.0
 20
0.0
 30
0.0
210
0.0
220
0.0
230
1.0
  2
GRASS
 70
0
 71
0
 91
1
 92
3
 72
0
 73
1
 93
4
 10
1250.0
 20
1445.0
 10
1290.0
 20
1445.0
 10
1290.0
 20
1475.0
 10
1250.0
 20
1475.0
 97
0
 75
1
 76
1
 52
0.0
 41
1.5
 77
0
 78
3
 53
90.0
 43
0.0
 44
0.0
 45
-26.94076836
 46
26.94076836
 79
2
 49
7.14375
 49
-46.73778672
 53
45.0
 43
0.0
 44
0.0
 45
-26.9407683631
 46
26.9407683631
 79
2
 49
7.14375
 49
-30.95625
 53
135.0
 43
0.0
 44
0.0
 45
-26.9407683631
 46
-26.9407683631
 79
2
 49
7.14375
 49
-30.95625
 98
0
  0
LWPOLYLINE
  5
923
330
17
100
AcDbEntity
  8
BUILDINGS
370
50
100
AcDbPolyline
 90
4
 70
1
 10
1230.0
 20
1550.0
 10
1310.0
 20
1550.0
 10
1310.0
 20
1610.0
 10
1230.0
 20
1610.0
  0
HATCH
  5
924
330
17
100
AcDbEntity
  8
BUILDINGS
 62
7
100
AcDbHatch
 10
0.0
 20
0.0
 30
0.0
210
0.0
220
0.0
230
1.0
  2
ANSI31
 70
0
 71
0
 91
1
 92
3
 72
0
 73
1
 93
4
 10
1230.0
 20
1550.0
 10
1310.0
 20
1550.0
 10
1310.0
 20
1610.0
 10
1230.0
 20
1610.0
 97
0
 75
1
 76
1
 52
0.0
 41
2.0
 77
0
 78
1
 53
45.0
 43
0.0
 44
0.0
 45
-4.4901280606
 46
4.4901280606
 79
0
 98
0
  0
LWPOLYLINE
  5
925
330
17
100
AcDbEntity
  8
GREEN_CORRIDOR
370
25
100
AcDbPolyline
 90
4
 70
1
 10
1250.0
 20
1565.0
 10
1290.0
 20
1565.0
 10
1290.0
 20
1595.0
 10
1250.0
 20
1595.0
  0
HATCH
  5
926
330
17
100
AcDbEntity
  8
HATCH_GREEN
 62
7
100
AcDbHatch
 10
0.0
 20
0.0
 30
0.0
210
0.0
220
0.0
230
1.0
  2
GRASS
 70
0
 71
0
 91
1
 92
3
 72
0
 73
1
 93
4
 10
1250.0
 20
1565.0
 10
1290.0
 20
1565.0
 10
1290.0
 20
1595.0
 10
1250.0
 20
1595.0
 97
0
 75
1
 76
1
 52
0.0
 41
1.5
 77
0
 78
3
 53
90.0
 43
0.0
 44
0.0
 45
-26.94076836
 46
26.94076836
 79
2
 49
7.14375
 49
-46.73778672
 53
45.0
 43
0.0
 44
0.0
 45
-26.9407683631
 46
26.9407683631
 79
2
 49
7.14375
 49
-30.95625
 53
135.0
 43
0.0
 44
0.0
 45
-26.9407683631
 46
-26.9407683631
 79
2
 49
7.14375
 49
-30.95625
 98
0
  0
LWPOLYLINE
  5
927
330
17
100
AcDbEntity
  8
BUILDINGS
370
50
100
AcDbPolyline
 90
4
 70
1
 10
1230.0
 20
1670.0
 10
1310.0
 20
1670.0
 10
1310.0
 20
1730.0
 10
1230.0
 20
1730.0
  0
HATCH
  5
928
330
17
100
AcDbEntity
  8
BUILDINGS
 62
7
100
AcDbHatch
 10
0.0
 20
0.0
 30
0.0
210
0.0
220
0.0
230
1.0
  2
ANSI31
 70
0
 71
0
 91
1
 92
3
 72
0
 73
1
 93
4
 10
1230.0
 20
1670.0
 10
1310.0
 20
1670.0
 10
1310.0
 20
1730.0
 10
1230.0
 20
1730.0
 97
0
 75
1
 76
1
 52
0.0
 41
2.0
 77
0
 78
1
 53
45.0
 43
0.0
 44
0.0
 45
-4.4901280606
 46
4.4901280606
 79
0
 98
0
  0
LWPOLYLINE
  5
929
330
17
100
AcDbEntity
  8
GREEN_CORRIDOR
370
25
100
AcDbPolyline
 90
4
 70
1
 10
1250.0
 20
1685.0
 10
1290.0
 20
1685.0
 10
1290.0
 20
1715.0
 10
1250.0
 20
1715.0
  0
HATCH
  5
92A
330
17
100
AcDbEntity
  8
HATCH_GREEN
 62
7
100
AcDbHatch
 10
0.0
 20
0.0
 30
0.0
210
0.0
220
0.0
230
1.0
  2
GRASS
 70
0
 71
0
 91
1
 92
3
 72
0
 73
1
 93
4
 10
1250.0
 20
1685.0
 10
1290.0
 20
1685.0
 10
1290.0
 20
1715.0
 10
1250.0
 20
1715.0
 97
0
 75
1
 76
1
 52
0.0
 41
1.5
 77
0
 78
3
 53
90.0
 43
0.0
 44
0.0
 45
-26.94076836
 46
26.94076836
 79
2
 49
7.14375
 49
-46.73778672
 53
45.0
 43
0.0
 44
0.0
 45
-26.9407683631
 46
26.9407683631
 79
2
 49
7.14375
 49
-30.95625
 53
135.0
 43
0.0
 44
0.0
 45
-26.9407683631
 46
-26.9407683631
 79
2
 49
7.14375
 49
-30.95625
 98
0
  0
LWPOLYLINE
  5
92B
330
17
100
AcDbEntity
  8
BUILDINGS
370
50
100
AcDbPolyline
 90
4
 70
1
 10
1230.0
 20
1790.0
 10
1310.0
 20
1790.0
 10
1310.0
 20
1850.0
 10
1230.0
 20
1850.0
  0
HATCH
  5
92C
330
17
100
AcDbEntity
  8
BUILDINGS
 62
7
100
AcDbHatch
 10
0.0
 20
0.0
 30
0.0
210
0.0
220
0.0
230
1.0
  2
ANSI31
 70
0
 71
0
 91
1
 92
3
 72
0
 73
1
 93
4
 10
1230.0
 20
1790.0
 10
1310.0
 20
1790.0
 10
1310.0
 20
1850.0
 10
1230.0
 20
1850.0
 97
0
 75
1
 76
1
 52
0.0
 41
2.0
 77
0
 78
1
 53
45.0
 43
0.0
 44
0.0
 45
-4.4901280606
 46
4.4901280606
 79
0
 98
0
  0
LWPOLYLINE
  5
92D
330
17
100
AcDbEntity
  8
GREEN_CORRIDOR
370
25
100
AcDbPolyline
 90
4
 70
1
 10
1250.0
 20
1805.0
 10
1290.0
 20
1805.0
 10
1290.0
 20
1835.0
 10
1250.0
 20
1835.0
  0
HATCH
  5
92E
330
17
100
AcDbEntity
  8
HATCH_GREEN
 62
7
100
AcDbHatch
 10
0.0
 20
0.0
 30
0.0
210
0.0
220
0.0
230
1.0
  2
GRASS
 70
0
 71
0
 91
1
 92
3
 72
0
 73
1
 93
4
 10
1250.0
 20
1805.0
 10
1290.0
 20
1805.0
 10
1290.0
 20
1835.0
 10
1250.0
 20
1835.0
 97
0
 75
1
 76
1
 52
0.0
 41
1.5
 77
0
 78
3
 53
90.0
 43
0.0
 44
0.0
 45
-26.94076836
 46
26.94076836
 79
2
 49
7.14375
 49
-46.73778672
 53
45.0
 43
0.0
 44
0.0
 45
-26.9407683631
 46
26.9407683631
 79
2
 49
7.14375
 49
-30.95625
 53
135.0
 43
0.0
 44
0.0
 45
-26.9407683631
 46
-26.9407683631
 79
2
 49
7.14375
 49
-30.95625
 98
0
  0
LWPOLYLINE
  5
92F
330
17
100
AcDbEntity
  8
BUILDINGS
370
50
100
AcDbPolyline
 90
4
 70
1
 10
1350.0
 20
1430.0
 10
1430.0
 20
1430.0
 10
1430.0
 20
1490.0
 10
1350.0
 20
1490.0
  0
HATCH
  5
930
330
17
100
AcDbEntity
  8
BUILDINGS
 62
7
100
AcDbHatch
 10
0.0
 20
0.0
 30
0.0
210
0.0
220
0.0
230
1.0
  2
ANSI31
 70
0
 71
0
 91
1
 92
3
 72
0
 73
1
 93
4
 10
1350.0
 20
1430.0
 10
1430.0
 20
1430.0
 10
1430.0
 20
1490.0
 10
1350.0
 20
1490.0
 97
0
 75
1
 76
1
 52
0.0
 41
2.0
 77
0
 78
1
 53
45.0
 43
0.0
 44
0.0
 45
-4.4901280606
 46
4.4901280606
 79
0
 98
0
  0
LWPOLYLINE
  5
931
330
17
100
AcDbEntity
  8
GREEN_CORRIDOR
370
25
100
AcDbPolyline
 90
4
 70
1
 10
1370.0
 20
1445.0
 10
1410.0
 20
1445.0
 10
1410.0
 20
1475.0
 10
1370.0
 20
1475.0
  0
HATCH
  5
932
330
17
100
AcDbEntity
  8
HATCH_GREEN
 62
7
100
AcDbHatch
 10
0.0
 20
0.0
 30
0.0
210
0.0
220
0.0
230
1.0
  2
GRASS
 70
0
 71
0
 91
1
 92
3
 72
0
 73
1
 93
4
 10
1370.0
 20
1445.0
 10
1410.0
 20
1445.0
 10
1410.0
 20
1475.0
 10
1370.0
 20
1475.0
 97
0
 75
1
 76
1
 52
0.0
 41
1.5
 77
0
 78
3
 53
90.0
 43
0.0
 44
0.0
 45
-26.94076836
 46
26.94076836
 79
2
 49
7.14375
 49
-46.73778672
 53
45.0
 43
0.0
 44
0.0
 45
-26.9407683631
 46
26.9407683631
 79
2
 49
7.14375
 49
-30.95625
 53
135.0
 43
0.0
 44
0.0
 45
-26.9407683631
 46
-26.9407683631
 79
2
 49
7.14375
 49
-30.95625
 98
0
  0
LWPOLYLINE
  5
933
330
17
100
AcDbEntity
  8
BUILDINGS
370
50
100
AcDbPolyline
 90
4
 70
1
 10
1350.0
 20
1550.0
 10
1430.0
 20
1550.0
 10
1430.0
 20
1610.0
 10
1350.0
 20
1610.0
  0
HATCH
  5
934
330
17
100
AcDbEntity
  8
BUILDINGS
 62
7
100
AcDbHatch
 10
0.0
 20
0.0
 30
0.0
210
0.0
220
0.0
230
1.0
  2
ANSI31
 70
0
 71
0
 91
1
 92
3
 72
0
 73
1
 93
4
 10
1350.0
 20
1550.0
 10
1430.0
 20
1550.0
 10
1430.0
 20
1610.0
 10
1350.0
 20
1610.0
 97
0
 75
1
 76
1
 52
0.0
 41
2.0
 77
0
 78
1
 53
45.0
 43
0.0
 44
0.0
 45
-4.4901280606
 46
4.4901280606
 79
0
 98
0
  0
LWPOLYLINE
  5
935
330
17
100
AcDbEntity
  8
GREEN_CORRIDOR
370
25
100
AcDbPolyline
 90
4
 70
1
 10
1370.0
 20
1565.0
 10
1410.0
 20
1565.0
 10
1410.0
 20
1595.0
 10
1370.0
 20
1595.0
  0
HATCH
  5
936
330
17
100
AcDbEntity
  8
HATCH_GREEN
 62
7
100
AcDbHatch
 10
0.0
 20
0.0
 30
0.0
210
0.0
220
0.0
230
1.0
  2
GRASS
 70
0
 71
0
 91
1
 92
3
 72
0
 73
1
 93
4
 10
1370.0
 20
1565.0
 10
1410.0
 20
1565.0
 10
1410.0
 20
1595.0
 10
1370.0
 20
1595.0
 97
0
 75
1
 76
1
 52
0.0
 41
1.5
 77
0
 78
3
 53
90.0
 43
0.0
 44
0.0
 45
-26.94076836
 46
26.94076836
 79
2
 49
7.14375
 49
-46.73778672
 53
45.0
 43
0.0
 44
0.0
 45
-26.9407683631
 46
26.9407683631
 79
2
 49
7.14375
 49
-30.95625
 53
135.0
 43
0.0
 44
0.0
 45
-26.9407683631
 46
-26.9407683631
 79
2
 49
7.14375
 49
-30.95625
 98
0
  0
LWPOLYLINE
  5
937
330
17
100
AcDbEntity
  8
BUILDINGS
370
50
100
AcDbPolyline
 90
4
 70
1
 10
1350.0
 20
1670.0
 10
1430.0
 20
1670.0
 10
1430.0
 20
1730.0
 10
1350.0
 20
1730.0
  0
HATCH
  5
938
330
17
100
AcDbEntity
  8
BUILDINGS
 62
7
100
AcDbHatch
 10
0.0
 20
0.0
 30
0.0
210
0.0
220
0.0
230
1.0
  2
ANSI31
 70
0
 71
0
 91
1
 92
3
 72
0
 73
1
 93
4
 10
1350.0
 20
1670.0
 10
1430.0
 20
1670.0
 10
1430.0
 20
1730.0
 10
1350.0
 20
1730.0
 97
0
 75
1
 76
1
 52
0.0
 41
2.0
 77
0
 78
1
 53
45.0
 43
0.0
 44
0.0
 45
-4.4901280606
 46
4.4901280606
 79
0
 98
0
  0
LWPOLYLINE
  5
939
330
17
100
AcDbEntity
  8
GREEN_CORRIDOR
370
25
100
AcDbPolyline
 90
4
 70
1
 10
1370.0
 20
1685.0
 10
1410.0
 20
1685.0
 10
1410.0
 20
1715.0
 10
1370.0
 20
1715.0
  0
HATCH
  5
93A
330
17
100
AcDbEntity
  8
HATCH_GREEN
 62
7
100
AcDbHatch
 10
0.0
 20
0.0
 30
0.0
210
0.0
220
0.0
230
1.0
  2
GRASS
 70
0
 71
0
 91
1
 92
3
 72
0
 73
1
 93
4
 10
1370.0
 20
1685.0
 10
1410.0
 20
1685.0
 10
1410.0
 20
1715.0
 10
1370.0
 20
1715.0
 97
0
 75
1
 76
1
 52
0.0
 41
1.5
 77
0
 78
3
 53
90.0
 43
0.0
 44
0.0
 45
-26.94076836
 46
26.94076836
 79
2
 49
7.14375
 49
-46.73778672
 53
45.0
 43
0.0
 44
0.0
 45
-26.9407683631
 46
26.9407683631
 79
2
 49
7.14375
 49
-30.95625
 53
135.0
 43
0.0
 44
0.0
 45
-26.9407683631
 46
-26.9407683631
 79
2
 49
7.14375
 49
-30.95625
 98
0
  0
LWPOLYLINE
  5
93B
330
17
100
AcDbEntity
  8
BUILDINGS
370
50
100
AcDbPolyline
 90
4
 70
1
 10
1350.0
 20
1790.0
 10
1430.0
 20
1790.0
 10
1430.0
 20
1850.0
 10
1350.0
 20
1850.0
  0
HATCH
  5
93C
330
17
100
AcDbEntity
  8
BUILDINGS
 62
7
100
AcDbHatch
 10
0.0
 20
0.0
 30
0.0
210
0.0
220
0.0
230
1.0
  2
ANSI31
 70
0
 71
0
 91
1
 92
3
 72
0
 73
1
 93
4
 10
1350.0
 20
1790.0
 10
1430.0
 20
1790.0
 10
1430.0
 20
1850.0
 10
1350.0
 20
1850.0
 97
0
 75
1
 76
1
 52
0.0
 41
2.0
 77
0
 78
1
 53
45.0
 43
0.0
 44
0.0
 45
-4.4901280606
 46
4.4901280606
 79
0
 98
0
  0
LWPOLYLINE
  5
93D
330
17
100
AcDbEntity
  8
GREEN_CORRIDOR
370
25
100
AcDbPolyline
 90
4
 70
1
 10
1370.0
 20
1805.0
 10
1410.0
 20
1805.0
 10
1410.0
 20
1835.0
 10
1370.0
 20
1835.0
  0
HATCH
  5
93E
330
17
100
AcDbEntity
  8
HATCH_GREEN
 62
7
100
AcDbHatch
 10
0.0
 20
0.0
 30
0.0
210
0.0
220
0.0
230
1.0
  2
GRASS
 70
0
 71
0
 91
1
 92
3
 72
0
 73
1
 93
4
 10
1370.0
 20
1805.0
 10
1410.0
 20
1805.0
 10
1410.0
 20
1835.0
 10
1370.0
 20
1835.0
 97
0
 75
1
 76
1
 52
0.0
 41
1.5
 77
0
 78
3
 53
90.0
 43
0.0
 44
0.0
 45
-26.94076836
 46
26.94076836
 79
2
 49
7.14375
 49
-46.73778672
 53
45.0
 43
0.0
 44
0.0
 45
-26.9407683631
 46
26.9407683631
 79
2
 49
7.14375
 49
-30.95625
 53
135.0
 43
0.0
 44
0.0
 45
-26.9407683631
 46
-26.9407683631
 79
2
 49
7.14375
 49
-30.95625
 98
0
  0
LWPOLYLINE
  5
93F
330
17
100
AcDbEntity
  8
BUILDINGS
370
50
100
AcDbPolyline
 90
4
 70
1
 10
1470.0
 20
1430.0
 10
1550.0
 20
1430.0
 10
1550.0
 20
1490.0
 10
1470.0
 20
1490.0
  0
HATCH
  5
940
330
17
100
AcDbEntity
  8
BUILDINGS
 62
7
100
AcDbHatch
 10
0.0
 20
0.0
 30
0.0
210
0.0
220
0.0
230
1.0
  2
ANSI31
 70
0
 71
0
 91
1
 92
3
 72
0
 73
1
 93
4
 10
1470.0
 20
1430.0
 10
1550.0
 20
1430.0
 10
1550.0
 20
1490.0
 10
1470.0
 20
1490.0
 97
0
 75
1
 76
1
 52
0.0
 41
2.0
 77
0
 78
1
 53
45.0
 43
0.0
 44
0.0
 45
-4.4901280606
 46
4.4901280606
 79
0
 98
0
  0
LWPOLYLINE
  5
941
330
17
100
AcDbEntity
  8
GREEN_CORRIDOR
370
25
100
AcDbPolyline
 90
4
 70
1
 10
1490.0
 20
1445.0
 10
1530.0
 20
1445.0
 10
1530.0
 20
1475.0
 10
1490.0
 20
1475.0
  0
HATCH
  5
942
330
17
100
AcDbEntity
  8
HATCH_GREEN
 62
7
100
AcDbHatch
 10
0.0
 20
0.0
 30
0.0
210
0.0
220
0.0
230
1.0
  2
GRASS
 70
0
 71
0
 91
1
 92
3
 72
0
 73
1
 93
4
 10
1490.0
 20
1445.0
 10
1530.0
 20
1445.0
 10
1530.0
 20
1475.0
 10
1490.0
 20
1475.0
 97
0
 75
1
 76
1
 52
0.0
 41
1.5
 77
0
 78
3
 53
90.0
 43
0.0
 44
0.0
 45
-26.94076836
 46
26.94076836
 79
2
 49
7.14375
 49
-46.73778672
 53
45.0
 43
0.0
 44
0.0
 45
-26.9407683631
 46
26.9407683631
 79
2
 49
7.14375
 49
-30.95625
 53
135.0
 43
0.0
 44
0.0
 45
-26.9407683631
 46
-26.9407683631
 79
2
 49
7.14375
 49
-30.95625
 98
0
  0
LWPOLYLINE
  5
943
330
17
100
AcDbEntity
  8
BUILDINGS
370
50
100
AcDbPolyline
 90
4
 70
1
 10
1470.0
 20
1550.0
 10
1550.0
 20
1550.0
 10
1550.0
 20
1610.0
 10
1470.0
 20
1610.0
  0
HATCH
  5
944
330
17
100
AcDbEntity
  8
BUILDINGS
 62
7
100
AcDbHatch
 10
0.0
 20
0.0
 30
0.0
210
0.0
220
0.0
230
1.0
  2
ANSI31
 70
0
 71
0
 91
1
 92
3
 72
0
 73
1
 93
4
 10
1470.0
 20
1550.0
 10
1550.0
 20
1550.0
 10
1550.0
 20
1610.0
 10
1470.0
 20
1610.0
 97
0
 75
1
 76
1
 52
0.0
 41
2.0
 77
0
 78
1
 53
45.0
 43
0.0
 44
0.0
 45
-4.4901280606
 46
4.4901280606
 79
0
 98
0
  0
LWPOLYLINE
  5
945
330
17
100
AcDbEntity
  8
GREEN_CORRIDOR
370
25
100
AcDbPolyline
 90
4
 70
1
 10
1490.0
 20
1565.0
 10
1530.0
 20
1565.0
 10
1530.0
 20
1595.0
 10
1490.0
 20
1595.0
  0
HATCH
  5
946
330
17
100
AcDbEntity
  8
HATCH_GREEN
 62
7
100
AcDbHatch
 10
0.0
 20
0.0
 30
0.0
210
0.0
220
0.0
230
1.0
  2
GRASS
 70
0
 71
0
 91
1
 92
3
 72
0
 73
1
 93
4
 10
1490.0
 20
1565.0
 10
1530.0
 20
1565.0
 10
1530.0
 20
1595.0
 10
1490.0
 20
1595.0
 97
0
 75
1
 76
1
 52
0.0
 41
1.5
 77
0
 78
3
 53
90.0
 43
0.0
 44
0.0
 45
-26.94076836
 46
26.94076836
 79
2
 49
7.14375
 49
-46.73778672
 53
45.0
 43
0.0
 44
0.0
 45
-26.9407683631
 46
26.9407683631
 79
2
 49
7.14375
 49
-30.95625
 53
135.0
 43
0.0
 44
0.0
 45
-26.9407683631
 46
-26.9407683631
 79
2
 49
7.14375
 49
-30.95625
 98
0
  0
LWPOLYLINE
  5
947
330
17
100
AcDbEntity
  8
BUILDINGS
370
50
100
AcDbPolyline
 90
4
 70
1
 10
1470.0
 20
1670.0
 10
1550.0
 20
1670.0
 10
1550.0
 20
1730.0
 10
1470.0
 20
1730.0
  0
HATCH
  5
948
330
17
100
AcDbEntity
  8
BUILDINGS
 62
7
100
AcDbHatch
 10
0.0
 20
0.0
 30
0.0
210
0.0
220
0.0
230
1.0
  2
ANSI31
 70
0
 71
0
 91
1
 92
3
 72
0
 73
1
 93
4
 10
1470.0
 20
1670.0
 10
1550.0
 20
1670.0
 10
1550.0
 20
1730.0
 10
1470.0
 20
1730.0
 97
0
 75
1
 76
1
 52
0.0
 41
2.0
 77
0
 78
1
 53
45.0
 43
0.0
 44
0.0
 45
-4.4901280606
 46
4.4901280606
 79
0
 98
0
  0
LWPOLYLINE
  5
949
330
17
100
AcDbEntity
  8
GREEN_CORRIDOR
370
25
100
AcDbPolyline
 90
4
 70
1
 10
1490.0
 20
1685.0
 10
1530.0
 20
1685.0
 10
1530.0
 20
1715.0
 10
1490.0
 20
1715.0
  0
HATCH
  5
94A
330
17
100
AcDbEntity
  8
HATCH_GREEN
 62
7
100
AcDbHatch
 10
0.0
 20
0.0
 30
0.0
210
0.0
220
0.0
230
1.0
  2
GRASS
 70
0
 71
0
 91
1
 92
3
 72
0
 73
1
 93
4
 10
1490.0
 20
1685.0
 10
1530.0
 20
1685.0
 10
1530.0
 20
1715.0
 10
1490.0
 20
1715.0
 97
0
 75
1
 76
1
 52
0.0
 41
1.5
 77
0
 78
3
 53
90.0
 43
0.0
 44
0.0
 45
-26.94076836
 46
26.94076836
 79
2
 49
7.14375
 49
-46.73778672
 53
45.0
 43
0.0
 44
0.0
 45
-26.9407683631
 46
26.9407683631
 79
2
 49
7.14375
 49
-30.95625
 53
135.0
 43
0.0
 44
0.0
 45
-26.9407683631
 46
-26.9407683631
 79
2
 49
7.14375
 49
-30.95625
 98
0
  0
LWPOLYLINE
  5
94B
330
17
100
AcDbEntity
  8
BUILDINGS
370
50
100
AcDbPolyline
 90
4
 70
1
 10
1470.0
 20
1790.0
 10
1550.0
 20
1790.0
 10
1550.0
 20
1850.0
 10
1470.0
 20
1850.0
  0
HATCH
  5
94C
330
17
100
AcDbEntity
  8
BUILDINGS
 62
7
100
AcDbHatch
 10
0.0
 20
0.0
 30
0.0
210
0.0
220
0.0
230
1.0
  2
ANSI31
 70
0
 71
0
 91
1
 92
3
 72
0
 73
1
 93
4
 10
1470.0
 20
1790.0
 10
1550.0
 20
1790.0
 10
1550.0
 20
1850.0
 10
1470.0
 20
1850.0
 97
0
 75
1
 76
1
 52
0.0
 41
2.0
 77
0
 78
1
 53
45.0
 43
0.0
 44
0.0
 45
-4.4901280606
 46
4.4901280606
 79
0
 98
0
  0
LWPOLYLINE
  5
94D
330
17
100
AcDbEntity
  8
GREEN_CORRIDOR
370
25
100
AcDbPolyline
 90
4
 70
1
 10
1490.0
 20
1805.0
 10
1530.0
 20
1805.0
 10
1530.0
 20
1835.0
 10
1490.0
 20
1835.0
  0
HATCH
  5
94E
330
17
100
AcDbEntity
  8
HATCH_GREEN
 62
7
100
AcDbHatch
 10
0.0
 20
0.0
 30
0.0
210
0.0
220
0.0
230
1.0
  2
GRASS
 70
0
 71
0
 91
1
 92
3
 72
0
 73
1
 93
4
 10
1490.0
 20
1805.0
 10
1530.0
 20
1805.0
 10
1530.0
 20
1835.0
 10
1490.0
 20
1835.0
 97
0
 75
1
 76
1
 52
0.0
 41
1.5
 77
0
 78
3
 53
90.0
 43
0.0
 44
0.0
 45
-26.94076836
 46
26.94076836
 79
2
 49
7.14375
 49
-46.73778672
 53
45.0
 43
0.0
 44
0.0
 45
-26.9407683631
 46
26.9407683631
 79
2
 49
7.14375
 49
-30.95625
 53
135.0
 43
0.0
 44
0.0
 45
-26.9407683631
 46
-26.9407683631
 79
2
 49
7.14375
 49
-30.95625
 98
0
  0
LWPOLYLINE
  5
94F
330
17
100
AcDbEntity
  8
BUILDINGS
370
50
100
AcDbPolyline
 90
4
 70
1
 10
1590.0
 20
1430.0
 10
1670.0
 20
1430.0
 10
1670.0
 20
1490.0
 10
1590.0
 20
1490.0
  0
HATCH
  5
950
330
17
100
AcDbEntity
  8
BUILDINGS
 62
7
100
AcDbHatch
 10
0.0
 20
0.0
 30
0.0
210
0.0
220
0.0
230
1.0
  2
ANSI31
 70
0
 71
0
 91
1
 92
3
 72
0
 73
1
 93
4
 10
1590.0
 20
1430.0
 10
1670.0
 20
1430.0
 10
1670.0
 20
1490.0
 10
1590.0
 20
1490.0
 97
0
 75
1
 76
1
 52
0.0
 41
2.0
 77
0
 78
1
 53
45.0
 43
0.0
 44
0.0
 45
-4.4901280606
 46
4.4901280606
 79
0
 98
0
  0
LWPOLYLINE
  5
951
330
17
100
AcDbEntity
  8
GREEN_CORRIDOR
370
25
100
AcDbPolyline
 90
4
 70
1
 10
1610.0
 20
1445.0
 10
1650.0
 20
1445.0
 10
1650.0
 20
1475.0
 10
1610.0
 20
1475.0
  0
HATCH
  5
952
330
17
100
AcDbEntity
  8
HATCH_GREEN
 62
7
100
AcDbHatch
 10
0.0
 20
0.0
 30
0.0
210
0.0
220
0.0
230
1.0
  2
GRASS
 70
0
 71
0
 91
1
 92
3
 72
0
 73
1
 93
4
 10
1610.0
 20
1445.0
 10
1650.0
 20
1445.0
 10
1650.0
 20
1475.0
 10
1610.0
 20
1475.0
 97
0
 75
1
 76
1
 52
0.0
 41
1.5
 77
0
 78
3
 53
90.0
 43
0.0
 44
0.0
 45
-26.94076836
 46
26.94076836
 79
2
 49
7.14375
 49
-46.73778672
 53
45.0
 43
0.0
 44
0.0
 45
-26.9407683631
 46
26.9407683631
 79
2
 49
7.14375
 49
-30.95625
 53
135.0
 43
0.0
 44
0.0
 45
-26.9407683631
 46
-26.9407683631
 79
2
 49
7.14375
 49
-30.95625
 98
0
  0
LWPOLYLINE
  5
953
330
17
100
AcDbEntity
  8
BUILDINGS
370
50
100
AcDbPolyline
 90
4
 70
1
 10
1590.0
 20
1550.0
 10
1670.0
 20
1550.0
 10
1670.0
 20
1610.0
 10
1590.0
 20
1610.0
  0
HATCH
  5
954
330
17
100
AcDbEntity
  8
BUILDINGS
 62
7
100
AcDbHatch
 10
0.0
 20
0.0
 30
0.0
210
0.0
220
0.0
230
1.0
  2
ANSI31
 70
0
 71
0
 91
1
 92
3
 72
0
 73
1
 93
4
 10
1590.0
 20
1550.0
 10
1670.0
 20
1550.0
 10
1670.0
 20
1610.0
 10
1590.0
 20
1610.0
 97
0
 75
1
 76
1
 52
0.0
 41
2.0
 77
0
 78
1
 53
45.0
 43
0.0
 44
0.0
 45
-4.4901280606
 46
4.4901280606
 79
0
 98
0
  0
LWPOLYLINE
  5
955
330
17
100
AcDbEntity
  8
GREEN_CORRIDOR
370
25
100
AcDbPolyline
 90
4
 70
1
 10
1610.0
 20
1565.0
 10
1650.0
 20
1565.0
 10
1650.0
 20
1595.0
 10
1610.0
 20
1595.0
  0
HATCH
  5
956
330
17
100
AcDbEntity
  8
HATCH_GREEN
 62
7
100
AcDbHatch
 10
0.0
 20
0.0
 30
0.0
210
0.0
220
0.0
230
1.0
  2
GRASS
 70
0
 71
0
 91
1
 92
3
 72
0
 73
1
 93
4
 10
1610.0
 20
1565.0
 10
1650.0
 20
1565.0
 10
1650.0
 20
1595.0
 10
1610.0
 20
1595.0
 97
0
 75
1
 76
1
 52
0.0
 41
1.5
 77
0
 78
3
 53
90.0
 43
0.0
 44
0.0
 45
-26.94076836
 46
26.94076836
 79
2
 49
7.14375
 49
-46.73778672
 53
45.0
 43
0.0
 44
0.0
 45
-26.9407683631
 46
26.9407683631
 79
2
 49
7.14375
 49
-30.95625
 53
135.0
 43
0.0
 44
0.0
 45
-26.9407683631
 46
-26.9407683631
 79
2
 49
7.14375
 49
-30.95625
 98
0
  0
LWPOLYLINE
  5
957
330
17
100
AcDbEntity
  8
BUILDINGS
370
50
100
AcDbPolyline
 90
4
 70
1
 10
1590.0
 20
1670.0
 10
1670.0
 20
1670.0
 10
1670.0
 20
1730.0
 10
1590.0
 20
1730.0
  0
HATCH
  5
958
330
17
100
AcDbEntity
  8
BUILDINGS
 62
7
100
AcDbHatch
 10
0.0
 20
0.0
 30
0.0
210
0.0
220
0.0
230
1.0
  2
ANSI31
 70
0
 71
0
 91
1
 92
3
 72
0
 73
1
 93
4
 10
1590.0
 20
1670.0
 10
1670.0
 20
1670.0
 10
1670.0
 20
1730.0
 10
1590.0
 20
1730.0
 97
0
 75
1
 76
1
 52
0.0
 41
2.0
 77
0
 78
1
 53
45.0
 43
0.0
 44
0.0
 45
-4.4901280606
 46
4.4901280606
 79
0
 98
0
  0
LWPOLYLINE
  5
959
330
17
100
AcDbEntity
  8
GREEN_CORRIDOR
370
25
100
AcDbPolyline
 90
4
 70
1
 10
1610.0
 20
1685.0
 10
1650.0
 20
1685.0
 10
1650.0
 20
1715.0
 10
1610.0
 20
1715.0
  0
HATCH
  5
95A
330
17
100
AcDbEntity
  8
HATCH_GREEN
 62
7
100
AcDbHatch
 10
0.0
 20
0.0
 30
0.0
210
0.0
220
0.0
230
1.0
  2
GRASS
 70
0
 71
0
 91
1
 92
3
 72
0
 73
1
 93
4
 10
1610.0
 20
1685.0
 10
1650.0
 20
1685.0
 10
1650.0
 20
1715.0
 10
1610.0
 20
1715.0
 97
0
 75
1
 76
1
 52
0.0
 41
1.5
 77
0
 78
3
 53
90.0
 43
0.0
 44
0.0
 45
-26.94076836
 46
26.94076836
 79
2
 49
7.14375
 49
-46.73778672
 53
45.0
 43
0.0
 44
0.0
 45
-26.9407683631
 46
26.9407683631
 79
2
 49
7.14375
 49
-30.95625
 53
135.0
 43
0.0
 44
0.0
 45
-26.9407683631
 46
-26.9407683631
 79
2
 49
7.14375
 49
-30.95625
 98
0
  0
LWPOLYLINE
  5
95B
330
17
100
AcDbEntity
  8
BUILDINGS
370
50
100
AcDbPolyline
 90
4
 70
1
 10
1590.0
 20
1790.0
 10
1670.0
 20
1790.0
 10
1670.0
 20
1850.0
 10
1590.0
 20
1850.0
  0
HATCH
  5
95C
330
17
100
AcDbEntity
  8
BUILDINGS
 62
7
100
AcDbHatch
 10
0.0
 20
0.0
 30
0.0
210
0.0
220
0.0
230
1.0
  2
ANSI31
 70
0
 71
0
 91
1
 92
3
 72
0
 73
1
 93
4
 10
1590.0
 20
1790.0
 10
1670.0
 20
1790.0
 10
1670.0
 20
1850.0
 10
1590.0
 20
1850.0
 97
0
 75
1
 76
1
 52
0.0
 41
2.0
 77
0
 78
1
 53
45.0
 43
0.0
 44
0.0
 45
-4.4901280606
 46
4.4901280606
 79
0
 98
0
  0
LWPOLYLINE
  5
95D
330
17
100
AcDbEntity
  8
GREEN_CORRIDOR
370
25
100
AcDbPolyline
 90
4
 70
1
 10
1610.0
 20
1805.0
 10
1650.0
 20
1805.0
 10
1650.0
 20
1835.0
 10
1610.0
 20
1835.0
  0
HATCH
  5
95E
330
17
100
AcDbEntity
  8
HATCH_GREEN
 62
7
100
AcDbHatch
 10
0.0
 20
0.0
 30
0.0
210
0.0
220
0.0
230
1.0
  2
GRASS
 70
0
 71
0
 91
1
 92
3
 72
0
 73
1
 93
4
 10
1610.0
 20
1805.0
 10
1650.0
 20
1805.0
 10
1650.0
 20
1835.0
 10
1610.0
 20
1835.0
 97
0
 75
1
 76
1
 52
0.0
 41
1.5
 77
0
 78
3
 53
90.0
 43
0.0
 44
0.0
 45
-26.94076836
 46
26.94076836
 79
2
 49
7.14375
 49
-46.73778672
 53
45.0
 43
0.0
 44
0.0
 45
-26.9407683631
 46
26.9407683631
 79
2
 49
7.14375
 49
-30.95625
 53
135.0
 43
0.0
 44
0.0
 45
-26.9407683631
 46
-26.9407683631
 79
2
 49
7.14375
 49
-30.95625
 98
0
  0
LWPOLYLINE
  5
95F
330
17
100
AcDbEntity
  8
BUILDINGS
370
50
100
AcDbPolyline
 90
4
 70
1
 10
1710.0
 20
1430.0
 10
1790.0
 20
1430.0
 10
1790.0
 20
1490.0
 10
1710.0
 20
1490.0
  0
HATCH
  5
960
330
17
100
AcDbEntity
  8
BUILDINGS
 62
7
100
AcDbHatch
 10
0.0
 20
0.0
 30
0.0
210
0.0
220
0.0
230
1.0
  2
ANSI31
 70
0
 71
0
 91
1
 92
3
 72
0
 73
1
 93
4
 10
1710.0
 20
1430.0
 10
1790.0
 20
1430.0
 10
1790.0
 20
1490.0
 10
1710.0
 20
1490.0
 97
0
 75
1
 76
1
 52
0.0
 41
2.0
 77
0
 78
1
 53
45.0
 43
0.0
 44
0.0
 45
-4.4901280606
 46
4.4901280606
 79
0
 98
0
  0
LWPOLYLINE
  5
961
330
17
100
AcDbEntity
  8
GREEN_CORRIDOR
370
25
100
AcDbPolyline
 90
4
 70
1
 10
1730.0
 20
1445.0
 10
1770.0
 20
1445.0
 10
1770.0
 20
1475.0
 10
1730.0
 20
1475.0
  0
HATCH
  5
962
330
17
100
AcDbEntity
  8
HATCH_GREEN
 62
7
100
AcDbHatch
 10
0.0
 20
0.0
 30
0.0
210
0.0
220
0.0
230
1.0
  2
GRASS
 70
0
 71
0
 91
1
 92
3
 72
0
 73
1
 93
4
 10
1730.0
 20
1445.0
 10
1770.0
 20
1445.0
 10
1770.0
 20
1475.0
 10
1730.0
 20
1475.0
 97
0
 75
1
 76
1
 52
0.0
 41
1.5
 77
0
 78
3
 53
90.0
 43
0.0
 44
0.0
 45
-26.94076836
 46
26.94076836
 79
2
 49
7.14375
 49
-46.73778672
 53
45.0
 43
0.0
 44
0.0
 45
-26.9407683631
 46
26.9407683631
 79
2
 49
7.14375
 49
-30.95625
 53
135.0
 43
0.0
 44
0.0
 45
-26.9407683631
 46
-26.9407683631
 79
2
 49
7.14375
 49
-30.95625
 98
0
  0
LWPOLYLINE
  5
963
330
17
100
AcDbEntity
  8
BUILDINGS
370
50
100
AcDbPolyline
 90
4
 70
1
 10
1710.0
 20
1550.0
 10
1790.0
 20
1550.0
 10
1790.0
 20
1610.0
 10
1710.0
 20
1610.0
  0
HATCH
  5
964
330
17
100
AcDbEntity
  8
BUILDINGS
 62
7
100
AcDbHatch
 10
0.0
 20
0.0
 30
0.0
210
0.0
220
0.0
230
1.0
  2
ANSI31
 70
0
 71
0
 91
1
 92
3
 72
0
 73
1
 93
4
 10
1710.0
 20
1550.0
 10
1790.0
 20
1550.0
 10
1790.0
 20
1610.0
 10
1710.0
 20
1610.0
 97
0
 75
1
 76
1
 52
0.0
 41
2.0
 77
0
 78
1
 53
45.0
 43
0.0
 44
0.0
 45
-4.4901280606
 46
4.4901280606
 79
0
 98
0
  0
LWPOLYLINE
  5
965
330
17
100
AcDbEntity
  8
GREEN_CORRIDOR
370
25
100
AcDbPolyline
 90
4
 70
1
 10
1730.0
 20
1565.0
 10
1770.0
 20
1565.0
 10
1770.0
 20
1595.0
 10
1730.0
 20
1595.0
  0
HATCH
  5
966
330
17
100
AcDbEntity
  8
HATCH_GREEN
 62
7
100
AcDbHatch
 10
0.0
 20
0.0
 30
0.0
210
0.0
220
0.0
230
1.0
  2
GRASS
 70
0
 71
0
 91
1
 92
3
 72
0
 73
1
 93
4
 10
1730.0
 20
1565.0
 10
1770.0
 20
1565.0
 10
1770.0
 20
1595.0
 10
1730.0
 20
1595.0
 97
0
 75
1
 76
1
 52
0.0
 41
1.5
 77
0
 78
3
 53
90.0
 43
0.0
 44
0.0
 45
-26.94076836
 46
26.94076836
 79
2
 49
7.14375
 49
-46.73778672
 53
45.0
 43
0.0
 44
0.0
 45
-26.9407683631
 46
26.9407683631
 79
2
 49
7.14375
 49
-30.95625
 53
135.0
 43
0.0
 44
0.0
 45
-26.9407683631
 46
-26.9407683631
 79
2
 49
7.14375
 49
-30.95625
 98
0
  0
LWPOLYLINE
  5
967
330
17
100
AcDbEntity
  8
BUILDINGS
370
50
100
AcDbPolyline
 90
4
 70
1
 10
1710.0
 20
1670.0
 10
1790.0
 20
1670.0
 10
1790.0
 20
1730.0
 10
1710.0
 20
1730.0
  0
HATCH
  5
968
330
17
100
AcDbEntity
  8
BUILDINGS
 62
7
100
AcDbHatch
 10
0.0
 20
0.0
 30
0.0
210
0.0
220
0.0
230
1.0
  2
ANSI31
 70
0
 71
0
 91
1
 92
3
 72
0
 73
1
 93
4
 10
1710.0
 20
1670.0
 10
1790.0
 20
1670.0
 10
1790.0
 20
1730.0
 10
1710.0
 20
1730.0
 97
0
 75
1
 76
1
 52
0.0
 41
2.0
 77
0
 78
1
 53
45.0
 43
0.0
 44
0.0
 45
-4.4901280606
 46
4.4901280606
 79
0
 98
0
  0
LWPOLYLINE
  5
969
330
17
100
AcDbEntity
  8
GREEN_CORRIDOR
370
25
100
AcDbPolyline
 90
4
 70
1
 10
1730.0
 20
1685.0
 10
1770.0
 20
1685.0
 10
1770.0
 20
1715.0
 10
1730.0
 20
1715.0
  0
HATCH
  5
96A
330
17
100
AcDbEntity
  8
HATCH_GREEN
 62
7
100
AcDbHatch
 10
0.0
 20
0.0
 30
0.0
210
0.0
220
0.0
230
1.0
  2
GRASS
 70
0
 71
0
 91
1
 92
3
 72
0
 73
1
 93
4
 10
1730.0
 20
1685.0
 10
1770.0
 20
1685.0
 10
1770.0
 20
1715.0
 10
1730.0
 20
1715.0
 97
0
 75
1
 76
1
 52
0.0
 41
1.5
 77
0
 78
3
 53
90.0
 43
0.0
 44
0.0
 45
-26.94076836
 46
26.94076836
 79
2
 49
7.14375
 49
-46.73778672
 53
45.0
 43
0.0
 44
0.0
 45
-26.9407683631
 46
26.9407683631
 79
2
 49
7.14375
 49
-30.95625
 53
135.0
 43
0.0
 44
0.0
 45
-26.9407683631
 46
-26.9407683631
 79
2
 49
7.14375
 49
-30.95625
 98
0
  0
LWPOLYLINE
  5
96B
330
17
100
AcDbEntity
  8
BUILDINGS
370
50
100
AcDbPolyline
 90
4
 70
1
 10
1710.0
 20
1790.0
 10
1790.0
 20
1790.0
 10
1790.0
 20
1850.0
 10
1710.0
 20
1850.0
  0
HATCH
  5
96C
330
17
100
AcDbEntity
  8
BUILDINGS
 62
7
100
AcDbHatch
 10
0.0
 20
0.0
 30
0.0
210
0.0
220
0.0
230
1.0
  2
ANSI31
 70
0
 71
0
 91
1
 92
3
 72
0
 73
1
 93
4
 10
1710.0
 20
1790.0
 10
1790.0
 20
1790.0
 10
1790.0
 20
1850.0
 10
1710.0
 20
1850.0
 97
0
 75
1
 76
1
 52
0.0
 41
2.0
 77
0
 78
1
 53
45.0
 43
0.0
 44
0.0
 45
-4.4901280606
 46
4.4901280606
 79
0
 98
0
  0
LWPOLYLINE
  5
96D
330
17
100
AcDbEntity
  8
GREEN_CORRIDOR
370
25
100
AcDbPolyline
 90
4
 70
1
 10
1730.0
 20
1805.0
 10
1770.0
 20
1805.0
 10
1770.0
 20
1835.0
 10
1730.0
 20
1835.0
  0
HATCH
  5
96E
330
17
100
AcDbEntity
  8
HATCH_GREEN
 62
7
100
AcDbHatch
 10
0.0
 20
0.0
 30
0.0
210
0.0
220
0.0
230
1.0
  2
GRASS
 70
0
 71
0
 91
1
 92
3
 72
0
 73
1
 93
4
 10
1730.0
 20
1805.0
 10
1770.0
 20
1805.0
 10
1770.0
 20
1835.0
 10
1730.0
 20
1835.0
 97
0
 75
1
 76
1
 52
0.0
 41
1.5
 77
0
 78
3
 53
90.0
 43
0.0
 44
0.0
 45
-26.94076836
 46
26.94076836
 79
2
 49
7.14375
 49
-46.73778672
 53
45.0
 43
0.0
 44
0.0
 45
-26.9407683631
 46
26.9407683631
 79
2
 49
7.14375
 49
-30.95625
 53
135.0
 43
0.0
 44
0.0
 45
-26.9407683631
 46
-26.9407683631
 79
2
 49
7.14375
 49
-30.95625
 98
0
  0
LWPOLYLINE
  5
96F
330
17
100
AcDbEntity
  8
BUILDINGS
370
50
100
AcDbPolyline
 90
4
 70
1
 10
1430.0
 20
730.0
 10
1530.0
 20
730.0
 10
1530.0
 20
800.0
 10
1430.0
 20
800.0
  0
HATCH
  5
970
330
17
100
AcDbEntity
  8
BUILDINGS
 62
7
100
AcDbHatch
 10
0.0
 20
0.0
 30
0.0
210
0.0
220
0.0
230
1.0
  2
ANSI31
 70
0
 71
0
 91
1
 92
3
 72
0
 73
1
 93
4
 10
1430.0
 20
730.0
 10
1530.0
 20
730.0
 10
1530.0
 20
800.0
 10
1430.0
 20
800.0
 97
0
 75
1
 76
1
 52
0.0
 41
2.0
 77
0
 78
1
 53
45.0
 43
0.0
 44
0.0
 45
-4.4901280606
 46
4.4901280606
 79
0
 98
0
  0
LWPOLYLINE
  5
971
330
17
100
AcDbEntity
  8
BUILDINGS
370
50
100
AcDbPolyline
 90
4
 70
1
 10
1430.0
 20
890.0
 10
1530.0
 20
890.0
 10
1530.0
 20
960.0
 10
1430.0
 20
960.0
  0
HATCH
  5
972
330
17
100
AcDbEntity
  8
BUILDINGS
 62
7
100
AcDbHatch
 10
0.0
 20
0.0
 30
0.0
210
0.0
220
0.0
230
1.0
  2
ANSI31
 70
0
 71
0
 91
1
 92
3
 72
0
 73
1
 93
4
 10
1430.0
 20
890.0
 10
1530.0
 20
890.0
 10
1530.0
 20
960.0
 10
1430.0
 20
960.0
 97
0
 75
1
 76
1
 52
0.0
 41
2.0
 77
0
 78
1
 53
45.0
 43
0.0
 44
0.0
 45
-4.4901280606
 46
4.4901280606
 79
0
 98
0
  0
LWPOLYLINE
  5
973
330
17
100
AcDbEntity
  8
BUILDINGS
370
50
100
AcDbPolyline
 90
4
 70
1
 10
1430.0
 20
1050.0
 10
1530.0
 20
1050.0
 10
1530.0
 20
1120.0
 10
1430.0
 20
1120.0
  0
HATCH
  5
974
330
17
100
AcDbEntity
  8
BUILDINGS
 62
7
100
AcDbHatch
 10
0.0
 20
0.0
 30
0.0
210
0.0
220
0.0
230
1.0
  2
ANSI31
 70
0
 71
0
 91
1
 92
3
 72
0
 73
1
 93
4
 10
1430.0
 20
1050.0
 10
1530.0
 20
1050.0
 10
1530.0
 20
1120.0
 10
1430.0
 20
1120.0
 97
0
 75
1
 76
1
 52
0.0
 41
2.0
 77
0
 78
1
 53
45.0
 43
0.0
 44
0.0
 45
-4.4901280606
 46
4.4901280606
 79
0
 98
0
  0
LWPOLYLINE
  5
975
330
17
100
AcDbEntity
  8
BUILDINGS
370
50
100
AcDbPolyline
 90
4
 70
1
 10
1580.0
 20
730.0
 10
1680.0
 20
730.0
 10
1680.0
 20
800.0
 10
1580.0
 20
800.0
  0
HATCH
  5
976
330
17
100
AcDbEntity
  8
BUILDINGS
 62
7
100
AcDbHatch
 10
0.0
 20
0.0
 30
0.0
210
0.0
220
0.0
230
1.0
  2
ANSI31
 70
0
 71
0
 91
1
 92
3
 72
0
 73
1
 93
4
 10
1580.0
 20
730.0
 10
1680.0
 20
730.0
 10
1680.0
 20
800.0
 10
1580.0
 20
800.0
 97
0
 75
1
 76
1
 52
0.0
 41
2.0
 77
0
 78
1
 53
45.0
 43
0.0
 44
0.0
 45
-4.4901280606
 46
4.4901280606
 79
0
 98
0
  0
LWPOLYLINE
  5
977
330
17
100
AcDbEntity
  8
BUILDINGS
370
50
100
AcDbPolyline
 90
4
 70
1
 10
1580.0
 20
890.0
 10
1680.0
 20
890.0
 10
1680.0
 20
960.0
 10
1580.0
 20
960.0
  0
HATCH
  5
978
330
17
100
AcDbEntity
  8
BUILDINGS
 62
7
100
AcDbHatch
 10
0.0
 20
0.0
 30
0.0
210
0.0
220
0.0
230
1.0
  2
ANSI31
 70
0
 71
0
 91
1
 92
3
 72
0
 73
1
 93
4
 10
1580.0
 20
890.0
 10
1680.0
 20
890.0
 10
1680.0
 20
960.0
 10
1580.0
 20
960.0
 97
0
 75
1
 76
1
 52
0.0
 41
2.0
 77
0
 78
1
 53
45.0
 43
0.0
 44
0.0
 45
-4.4901280606
 46
4.4901280606
 79
0
 98
0
  0
LWPOLYLINE
  5
979
330
17
100
AcDbEntity
  8
BUILDINGS
370
50
100
AcDbPolyline
 90
4
 70
1
 10
1580.0
 20
1050.0
 10
1680.0
 20
1050.0
 10
1680.0
 20
1120.0
 10
1580.0
 20
1120.0
  0
HATCH
  5
97A
330
17
100
AcDbEntity
  8
BUILDINGS
 62
7
100
AcDbHatch
 10
0.0
 20
0.0
 30
0.0
210
0.0
220
0.0
230
1.0
  2
ANSI31
 70
0
 71
0
 91
1
 92
3
 72
0
 73
1
 93
4
 10
1580.0
 20
1050.0
 10
1680.0
 20
1050.0
 10
1680.0
 20
1120.0
 10
1580.0
 20
1120.0
 97
0
 75
1
 76
1
 52
0.0
 41
2.0
 77
0
 78
1
 53
45.0
 43
0.0
 44
0.0
 45
-4.4901280606
 46
4.4901280606
 79
0
 98
0
  0
LWPOLYLINE
  5
97B
330
17
100
AcDbEntity
  8
BUILDINGS
370
50
100
AcDbPolyline
 90
4
 70
1
 10
1730.0
 20
730.0
 10
1830.0
 20
730.0
 10
1830.0
 20
800.0
 10
1730.0
 20
800.0
  0
HATCH
  5
97C
330
17
100
AcDbEntity
  8
BUILDINGS
 62
7
100
AcDbHatch
 10
0.0
 20
0.0
 30
0.0
210
0.0
220
0.0
230
1.0
  2
ANSI31
 70
0
 71
0
 91
1
 92
3
 72
0
 73
1
 93
4
 10
1730.0
 20
730.0
 10
1830.0
 20
730.0
 10
1830.0
 20
800.0
 10
1730.0
 20
800.0
 97
0
 75
1
 76
1
 52
0.0
 41
2.0
 77
0
 78
1
 53
45.0
 43
0.0
 44
0.0
 45
-4.4901280606
 46
4.4901280606
 79
0
 98
0
  0
LWPOLYLINE
  5
97D
330
17
100
AcDbEntity
  8
BUILDINGS
370
50
100
AcDbPolyline
 90
4
 70
1
 10
1730.0
 20
890.0
 10
1830.0
 20
890.0
 10
1830.0
 20
960.0
 10
1730.0
 20
960.0
  0
HATCH
  5
97E
330
17
100
AcDbEntity
  8
BUILDINGS
 62
7
100
AcDbHatch
 10
0.0
 20
0.0
 30
0.0
210
0.0
220
0.0
230
1.0
  2
ANSI31
 70
0
 71
0
 91
1
 92
3
 72
0
 73
1
 93
4
 10
1730.0
 20
890.0
 10
1830.0
 20
890.0
 10
1830.0
 20
960.0
 10
1730.0
 20
960.0
 97
0
 75
1
 76
1
 52
0.0
 41
2.0
 77
0
 78
1
 53
45.0
 43
0.0
 44
0.0
 45
-4.4901280606
 46
4.4901280606
 79
0
 98
0
  0
LWPOLYLINE
  5
97F
330
17
100
AcDbEntity
  8
BUILDINGS
370
50
100
AcDbPolyline
 90
4
 70
1
 10
1730.0
 20
1050.0
 10
1830.0
 20
1050.0
 10
1830.0
 20
1120.0
 10
1730.0
 20
1120.0
  0
HATCH
  5
980
330
17
100
AcDbEntity
  8
BUILDINGS
 62
7
100
AcDbHatch
 10
0.0
 20
0.0
 30
0.0
210
0.0
220
0.0
230
1.0
  2
ANSI31
 70
0
 71
0
 91
1
 92
3
 72
0
 73
1
 93
4
 10
1730.0
 20
1050.0
 10
1830.0
 20
1050.0
 10
1830.0
 20
1120.0
 10
1730.0
 20
1120.0
 97
0
 75
1
 76
1
 52
0.0
 41
2.0
 77
0
 78
1
 53
45.0
 43
0.0
 44
0.0
 45
-4.4901280606
 46
4.4901280606
 79
0
 98
0
  0
LWPOLYLINE
  5
981
330
17
100
AcDbEntity
  8
BUILDINGS
370
50
100
AcDbPolyline
 90
4
 70
1
 10
1880.0
 20
730.0
 10
1980.0
 20
730.0
 10
1980.0
 20
800.0
 10
1880.0
 20
800.0
  0
HATCH
  5
982
330
17
100
AcDbEntity
  8
BUILDINGS
 62
7
100
AcDbHatch
 10
0.0
 20
0.0
 30
0.0
210
0.0
220
0.0
230
1.0
  2
ANSI31
 70
0
 71
0
 91
1
 92
3
 72
0
 73
1
 93
4
 10
1880.0
 20
730.0
 10
1980.0
 20
730.0
 10
1980.0
 20
800.0
 10
1880.0
 20
800.0
 97
0
 75
1
 76
1
 52
0.0
 41
2.0
 77
0
 78
1
 53
45.0
 43
0.0
 44
0.0
 45
-4.4901280606
 46
4.4901280606
 79
0
 98
0
  0
LWPOLYLINE
  5
983
330
17
100
AcDbEntity
  8
BUILDINGS
370
50
100
AcDbPolyline
 90
4
 70
1
 10
1880.0
 20
890.0
 10
1980.0
 20
890.0
 10
1980.0
 20
960.0
 10
1880.0
 20
960.0
  0
HATCH
  5
984
330
17
100
AcDbEntity
  8
BUILDINGS
 62
7
100
AcDbHatch
 10
0.0
 20
0.0
 30
0.0
210
0.0
220
0.0
230
1.0
  2
ANSI31
 70
0
 71
0
 91
1
 92
3
 72
0
 73
1
 93
4
 10
1880.0
 20
890.0
 10
1980.0
 20
890.0
 10
1980.0
 20
960.0
 10
1880.0
 20
960.0
 97
0
 75
1
 76
1
 52
0.0
 41
2.0
 77
0
 78
1
 53
45.0
 43
0.0
 44
0.0
 45
-4.4901280606
 46
4.4901280606
 79
0
 98
0
  0
LWPOLYLINE
  5
985
330
17
100
AcDbEntity
  8
BUILDINGS
370
50
100
AcDbPolyline
 90
4
 70
1
 10
1880.0
 20
1050.0
 10
1980.0
 20
1050.0
 10
1980.0
 20
1120.0
 10
1880.0
 20
1120.0
  0
HATCH
  5
986
330
17
100
AcDbEntity
  8
BUILDINGS
 62
7
100
AcDbHatch
 10
0.0
 20
0.0
 30
0.0
210
0.0
220
0.0
230
1.0
  2
ANSI31
 70
0
 71
0
 91
1
 92
3
 72
0
 73
1
 93
4
 10
1880.0
 20
1050.0
 10
1980.0
 20
1050.0
 10
1980.0
 20
1120.0
 10
1880.0
 20
1120.0
 97
0
 75
1
 76
1
 52
0.0
 41
2.0
 77
0
 78
1
 53
45.0
 43
0.0
 44
0.0
 45
-4.4901280606
 46
4.4901280606
 79
0
 98
0
  0
LWPOLYLINE
  5
987
330
17
100
AcDbEntity
  8
BUILDINGS
370
70
100
AcDbPolyline
 90
4
 70
1
 10
830.0
 20
830.0
 10
890.0
 20
830.0
 10
890.0
 20
890.0
 10
830.0
 20
890.0
  0
HATCH
  5
988
330
17
100
AcDbEntity
  8
HATCH_COMMERCIAL
 62
7
100
AcDbHatch
 10
0.0
 20
0.0
 30
0.0
210
0.0
220
0.0
230
1.0
  2
CROSS
 70
0
 71
0
 91
1
 92
3
 72
0
 73
1
 93
4
 10
830.0
 20
830.0
 10
890.0
 20
830.0
 10
890.0
 20
890.0
 10
830.0
 20
890.0
 97
0
 75
1
 76
1
 52
0.0
 41
3.0
 77
0
 78
2
 53
0.0
 43
0.0
 44
0.0
 45
19.05
 46
19.05
 79
2
 49
9.525
 49
-28.575
 53
90.0
 43
4.7625
 44
-4.7625
 45
-19.05
 46
19.05
 79
2
 49
9.525
 49
-28.575
 98
0
  0
LWPOLYLINE
  5
989
330
17
100
AcDbEntity
  8
BUILDINGS
370
70
100
AcDbPolyline
 90
4
 70
1
 10
830.0
 20
1000.0
 10
890.0
 20
1000.0
 10
890.0
 20
1060.0
 10
830.0
 20
1060.0
  0
HATCH
  5
98A
330
17
100
AcDbEntity
  8
HATCH_COMMERCIAL
 62
7
100
AcDbHatch
 10
0.0
 20
0.0
 30
0.0
210
0.0
220
0.0
230
1.0
  2
CROSS
 70
0
 71
0
 91
1
 92
3
 72
0
 73
1
 93
4
 10
830.0
 20
1000.0
 10
890.0
 20
1000.0
 10
890.0
 20
1060.0
 10
830.0
 20
1060.0
 97
0
 75
1
 76
1
 52
0.0
 41
3.0
 77
0
 78
2
 53
0.0
 43
0.0
 44
0.0
 45
19.05
 46
19.05
 79
2
 49
9.525
 49
-28.575
 53
90.0
 43
4.7625
 44
-4.7625
 45
-19.05
 46
19.05
 79
2
 49
9.525
 49
-28.575
 98
0
  0
LWPOLYLINE
  5
98B
330
17
100
AcDbEntity
  8
BUILDINGS
370
70
100
AcDbPolyline
 90
4
 70
1
 10
830.0
 20
1170.0
 10
890.0
 20
1170.0
 10
890.0
 20
1230.0
 10
830.0
 20
1230.0
  0
HATCH
  5
98C
330
17
100
AcDbEntity
  8
HATCH_COMMERCIAL
 62
7
100
AcDbHatch
 10
0.0
 20
0.0
 30
0.0
210
0.0
220
0.0
230
1.0
  2
CROSS
 70
0
 71
0
 91
1
 92
3
 72
0
 73
1
 93
4
 10
830.0
 20
1170.0
 10
890.0
 20
1170.0
 10
890.0
 20
1230.0
 10
830.0
 20
1230.0
 97
0
 75
1
 76
1
 52
0.0
 41
3.0
 77
0
 78
2
 53
0.0
 43
0.0
 44
0.0
 45
19.05
 46
19.05
 79
2
 49
9.525
 49
-28.575
 53
90.0
 43
4.7625
 44
-4.7625
 45
-19.05
 46
19.05
 79
2
 49
9.525
 49
-28.575
 98
0
  0
LWPOLYLINE
  5
98D
330
17
100
AcDbEntity
  8
BUILDINGS
370
70
100
AcDbPolyline
 90
4
 70
1
 10
1000.0
 20
830.0
 10
1060.0
 20
830.0
 10
1060.0
 20
890.0
 10
1000.0
 20
890.0
  0
HATCH
  5
98E
330
17
100
AcDbEntity
  8
HATCH_COMMERCIAL
 62
7
100
AcDbHatch
 10
0.0
 20
0.0
 30
0.0
210
0.0
220
0.0
230
1.0
  2
CROSS
 70
0
 71
0
 91
1
 92
3
 72
0
 73
1
 93
4
 10
1000.0
 20
830.0
 10
1060.0
 20
830.0
 10
1060.0
 20
890.0
 10
1000.0
 20
890.0
 97
0
 75
1
 76
1
 52
0.0
 41
3.0
 77
0
 78
2
 53
0.0
 43
0.0
 44
0.0
 45
19.05
 46
19.05
 79
2
 49
9.525
 49
-28.575
 53
90.0
 43
4.7625
 44
-4.7625
 45
-19.05
 46
19.05
 79
2
 49
9.525
 49
-28.575
 98
0
  0
LWPOLYLINE
  5
98F
330
17
100
AcDbEntity
  8
BUILDINGS
370
70
100
AcDbPolyline
 90
4
 70
1
 10
1000.0
 20
1000.0
 10
1060.0
 20
1000.0
 10
1060.0
 20
1060.0
 10
1000.0
 20
1060.0
  0
HATCH
  5
990
330
17
100
AcDbEntity
  8
HATCH_COMMERCIAL
 62
7
100
AcDbHatch
 10
0.0
 20
0.0
 30
0.0
210
0.0
220
0.0
230
1.0
  2
CROSS
 70
0
 71
0
 91
1
 92
3
 72
0
 73
1
 93
4
 10
1000.0
 20
1000.0
 10
1060.0
 20
1000.0
 10
1060.0
 20
1060.0
 10
1000.0
 20
1060.0
 97
0
 75
1
 76
1
 52
0.0
 41
3.0
 77
0
 78
2
 53
0.0
 43
0.0
 44
0.0
 45
19.05
 46
19.05
 79
2
 49
9.525
 49
-28.575
 53
90.0
 43
4.7625
 44
-4.7625
 45
-19.05
 46
19.05
 79
2
 49
9.525
 49
-28.575
 98
0
  0
LWPOLYLINE
  5
991
330
17
100
AcDbEntity
  8
BUILDINGS
370
70
100
AcDbPolyline
 90
4
 70
1
 10
1000.0
 20
1170.0
 10
1060.0
 20
1170.0
 10
1060.0
 20
1230.0
 10
1000.0
 20
1230.0
  0
HATCH
  5
992
330
17
100
AcDbEntity
  8
HATCH_COMMERCIAL
 62
7
100
AcDbHatch
 10
0.0
 20
0.0
 30
0.0
210
0.0
220
0.0
230
1.0
  2
CROSS
 70
0
 71
0
 91
1
 92
3
 72
0
 73
1
 93
4
 10
1000.0
 20
1170.0
 10
1060.0
 20
1170.0
 10
1060.0
 20
1230.0
 10
1000.0
 20
1230.0
 97
0
 75
1
 76
1
 52
0.0
 41
3.0
 77
0
 78
2
 53
0.0
 43
0.0
 44
0.0
 45
19.05
 46
19.05
 79
2
 49
9.525
 49
-28.575
 53
90.0
 43
4.7625
 44
-4.7625
 45
-19.05
 46
19.05
 79
2
 49
9.525
 49
-28.575
 98
0
  0
LWPOLYLINE
  5
993
330
17
100
AcDbEntity
  8
BUILDINGS
370
70
100
AcDbPolyline
 90
4
 70
1
 10
1170.0
 20
830.0
 10
1230.0
 20
830.0
 10
1230.0
 20
890.0
 10
1170.0
 20
890.0
  0
HATCH
  5
994
330
17
100
AcDbEntity
  8
HATCH_COMMERCIAL
 62
7
100
AcDbHatch
 10
0.0
 20
0.0
 30
0.0
210
0.0
220
0.0
230
1.0
  2
CROSS
 70
0
 71
0
 91
1
 92
3
 72
0
 73
1
 93
4
 10
1170.0
 20
830.0
 10
1230.0
 20
830.0
 10
1230.0
 20
890.0
 10
1170.0
 20
890.0
 97
0
 75
1
 76
1
 52
0.0
 41
3.0
 77
0
 78
2
 53
0.0
 43
0.0
 44
0.0
 45
19.05
 46
19.05
 79
2
 49
9.525
 49
-28.575
 53
90.0
 43
4.7625
 44
-4.7625
 45
-19.05
 46
19.05
 79
2
 49
9.525
 49
-28.575
 98
0
  0
LWPOLYLINE
  5
995
330
17
100
AcDbEntity
  8
BUILDINGS
370
70
100
AcDbPolyline
 90
4
 70
1
 10
1170.0
 20
1000.0
 10
1230.0
 20
1000.0
 10
1230.0
 20
1060.0
 10
1170.0
 20
1060.0
  0
HATCH
  5
996
330
17
100
AcDbEntity
  8
HATCH_COMMERCIAL
 62
7
100
AcDbHatch
 10
0.0
 20
0.0
 30
0.0
210
0.0
220
0.0
230
1.0
  2
CROSS
 70
0
 71
0
 91
1
 92
3
 72
0
 73
1
 93
4
 10
1170.0
 20
1000.0
 10
1230.0
 20
1000.0
 10
1230.0
 20
1060.0
 10
1170.0
 20
1060.0
 97
0
 75
1
 76
1
 52
0.0
 41
3.0
 77
0
 78
2
 53
0.0
 43
0.0
 44
0.0
 45
19.05
 46
19.05
 79
2
 49
9.525
 49
-28.575
 53
90.0
 43
4.7625
 44
-4.7625
 45
-19.05
 46
19.05
 79
2
 49
9.525
 49
-28.575
 98
0
  0
LWPOLYLINE
  5
997
330
17
100
AcDbEntity
  8
BUILDINGS
370
70
100
AcDbPolyline
 90
4
 70
1
 10
1170.0
 20
1170.0
 10
1230.0
 20
1170.0
 10
1230.0
 20
1230.0
 10
1170.0
 20
1230.0
  0
HATCH
  5
998
330
17
100
AcDbEntity
  8
HATCH_COMMERCIAL
 62
7
100
AcDbHatch
 10
0.0
 20
0.0
 30
0.0
210
0.0
220
0.0
230
1.0
  2
CROSS
 70
0
 71
0
 91
1
 92
3
 72
0
 73
1
 93
4
 10
1170.0
 20
1170.0
 10
1230.0
 20
1170.0
 10
1230.0
 20
1230.0
 10
1170.0
 20
1230.0
 97
0
 75
1
 76
1
 52
0.0
 41
3.0
 77
0
 78
2
 53
0.0
 43
0.0
 44
0.0
 45
19.05
 46
19.05
 79
2
 49
9.525
 49
-28.575
 53
90.0
 43
4.7625
 44
-4.7625
 45
-19.05
 46
19.05
 79
2
 49
9.525
 49
-28.575
 98
0
  0
INSERT
  5
999
330
17
100
AcDbEntity
  8
TREES
100
AcDbBlockReference
  2
TREE_PLAN
 10
1065.6523902395413
 20
722.8705884060573
 30
0.0
  0
INSERT
  5
99B
330
17
100
AcDbEntity
  8
TREES
100
AcDbBlockReference
  2
TREE_PLAN
 10
1193.3778208096724
 20
605.8249985443742
 30
0.0
  0
INSERT
  5
99D
330
17
100
AcDbEntity
  8
TREES
100
AcDbBlockReference
  2
TREE_PLAN
 10
1128.2963477215255
 20
629.9356768720122
 30
0.0
  0
INSERT
  5
99F
330
17
100
AcDbEntity
  8
TREES
100
AcDbBlockReference
  2
TREE_PLAN
 10
1196.229937439652
 20
657.2431464957444
 30
0.0
  0
INSERT
  5
9A1
330
17
100
AcDbEntity
  8
TREES
100
AcDbBlockReference
  2
TREE_PLAN
 10
1187.8474280649432
 20
573.0683503702855
 30
0.0
  0
INSERT
  5
9A3
330
17
100
AcDbEntity
  8
TREES
100
AcDbBlockReference
  2
TREE_PLAN
 10
1194.0801222044456
 20
585.7135632344928
 30
0.0
  0
INSERT
  5
9A5
330
17
100
AcDbEntity
  8
TREES
100
AcDbBlockReference
  2
TREE_PLAN
 10
1192.506863152311
 20
603.0932725045938
 30
0.0
  0
INSERT
  5
9A7
330
17
100
AcDbEntity
  8
TREES
100
AcDbBlockReference
  2
TREE_PLAN
 10
1021.6805094429423
 20
636.9127517129289
 30
0.0
  0
INSERT
  5
9A9
330
17
100
AcDbEntity
  8
TREES
100
AcDbBlockReference
  2
TREE_PLAN
 10
1145.709012130541
 20
612.7354628389983
 30
0.0
  0
INSERT
  5
9AB
330
17
100
AcDbEntity
  8
TREES
100
AcDbBlockReference
  2
TREE_PLAN
 10
1121.2417706612287
 20
652.2846119338956
 30
0.0
  0
INSERT
  5
9AD
330
17
100
AcDbEntity
  8
TREES
100
AcDbBlockReference
  2
TREE_PLAN
 10
1077.0390866689454
 20
665.3176086993199
 30
0.0
  0
INSERT
  5
9AF
330
17
100
AcDbEntity
  8
TREES
100
AcDbBlockReference
  2
TREE_PLAN
 10
1050.9445012277165
 20
691.7570567668341
 30
0.0
  0
INSERT
  5
9B1
330
17
100
AcDbEntity
  8
TREES
100
AcDbBlockReference
  2
TREE_PLAN
 10
1000.3382556437259
 20
735.1150330998165
 30
0.0
  0
INSERT
  5
9B3
330
17
100
AcDbEntity
  8
TREES
100
AcDbBlockReference
  2
TREE_PLAN
 10
1107.6903994185584
 20
693.885999828969
 30
0.0
  0
INSERT
  5
9B5
330
17
100
AcDbEntity
  8
TREES
100
AcDbBlockReference
  2
TREE_PLAN
 10
1148.3900155678953
 20
684.1257008865999
 30
0.0
  0
INSERT
  5
9B7
330
17
100
AcDbEntity
  8
TREES
100
AcDbBlockReference
  2
TREE_PLAN
 10
1072.844294356253
 20
563.9947622252621
 30
0.0
  0
INSERT
  5
9B9
330
17
100
AcDbEntity
  8
TREES
100
AcDbBlockReference
  2
TREE_PLAN
 10
1132.8475369822545
 20
616.0400072085192
 30
0.0
  0
INSERT
  5
9BB
330
17
100
AcDbEntity
  8
TREES
100
AcDbBlockReference
  2
TREE_PLAN
 10
1062.783129011672
 20
719.6030559012671
 30
0.0
  0
INSERT
  5
9BD
330
17
100
AcDbEntity
  8
TREES
100
AcDbBlockReference
  2
TREE_PLAN
 10
1143.95085260279
 20
610.0644536422528
 30
0.0
  0
INSERT
  5
9BF
330
17
100
AcDbEntity
  8
TREES
100
AcDbBlockReference
  2
TREE_PLAN
 10
1061.8569324417306
 20
631.6785817238433
 30
0.0
  0
INSERT
  5
9C1
330
17
100
AcDbEntity
  8
TREES
100
AcDbBlockReference
  2
TREE_PLAN
 10
1080.480077411545
 20
609.1310405051894
 30
0.0
  0
INSERT
  5
9C3
330
17
100
AcDbEntity
  8
TREES
100
AcDbBlockReference
  2
TREE_PLAN
 10
1025.4575598118306
 20
634.0892667545817
 30
0.0
  0
INSERT
  5
9C5
330
17
100
AcDbEntity
  8
TREES
100
AcDbBlockReference
  2
TREE_PLAN
 10
1188.0727341460365
 20
685.4635890545466
 30
0.0
  0
INSERT
  5
9C7
330
17
100
AcDbEntity
  8
TREES
100
AcDbBlockReference
  2
TREE_PLAN
 10
1180.5611091465166
 20
673.1029831902761
 30
0.0
  0
INSERT
  5
9C9
330
17
100
AcDbEntity
  8
TREES
100
AcDbBlockReference
  2
TREE_PLAN
 10
1060.189974913113
 20
659.5874426271396
 30
0.0
  0
INSERT
  5
9CB
330
17
100
AcDbEntity
  8
TREES
100
AcDbBlockReference
  2
TREE_PLAN
 10
1000.0811879394575
 20
607.3827433737854
 30
0.0
  0
INSERT
  5
9CD
330
17
100
AcDbEntity
  8
TREES
100
AcDbBlockReference
  2
TREE_PLAN
 10
1085.977629997967
 20
665.9969562391364
 30
0.0
  0
INSERT
  5
9CF
330
17
100
AcDbEntity
  8
TREES
100
AcDbBlockReference
  2
TREE_PLAN
 10
1130.9411247406142
 20
642.9976380494029
 30
0.0
  0
INSERT
  5
9D1
330
17
100
AcDbEntity
  8
TREES
100
AcDbBlockReference
  2
TREE_PLAN
 10
1088.4319598609616
 20
592.7402801978201
 30
0.0
  0
INSERT
  5
9D3
330
17
100
AcDbEntity
  8
TREES
100
AcDbBlockReference
  2
TREE_PLAN
 10
1094.6372371818652
 20
730.2361651656508
 30
0.0
  0
INSERT
  5
9D5
330
17
100
AcDbEntity
  8
TREES
100
AcDbBlockReference
  2
TREE_PLAN
 10
1159.204952025356
 20
583.9382792396109
 30
0.0
  0
INSERT
  5
9D7
330
17
100
AcDbEntity
  8
TREES
100
AcDbBlockReference
  2
TREE_PLAN
 10
1016.9591073450243
 20
653.0904019830433
 30
0.0
  0
INSERT
  5
9D9
330
17
100
AcDbEntity
  8
TREES
100
AcDbBlockReference
  2
TREE_PLAN
 10
1126.5881711531592
 20
617.0376510819601
 30
0.0
  0
INSERT
  5
9DB
330
17
100
AcDbEntity
  8
TREES
100
AcDbBlockReference
  2
TREE_PLAN
 10
1163.6846929073329
 20
700.2276275081465
 30
0.0
  0
INSERT
  5
9DD
330
17
100
AcDbEntity
  8
TREES
100
AcDbBlockReference
  2
TREE_PLAN
 10
1134.5591341114334
 20
594.9281331994576
 30
0.0
  0
INSERT
  5
9DF
330
17
100
AcDbEntity
  8
TREES
100
AcDbBlockReference
  2
TREE_PLAN
 10
1039.8259865453153
 20
554.8850775453652
 30
0.0
  0
INSERT
  5
9E1
330
17
100
AcDbEntity
  8
TREES
100
AcDbBlockReference
  2
TREE_PLAN
 10
1048.96850881567
 20
645.027268843761
 30
0.0
  0
INSERT
  5
9E3
330
17
100
AcDbEntity
  8
TREES
100
AcDbBlockReference
  2
TREE_PLAN
 10
1169.9475389249465
 20
564.5656458369139
 30
0.0
  0
INSERT
  5
9E5
330
17
100
AcDbEntity
  8
TREES
100
AcDbBlockReference
  2
TREE_PLAN
 10
1082.888202199544
 20
675.9530761475428
 30
0.0
  0
INSERT
  5
9E7
330
17
100
AcDbEntity
  8
TREES
100
AcDbBlockReference
  2
TREE_PLAN
 10
1038.887047347942
 20
689.2708500981009
 30
0.0
  0
INSERT
  5
9E9
330
17
100
AcDbEntity
  8
TREES
100
AcDbBlockReference
  2
TREE_PLAN
 10
349.55017352083496
 20
1679.518755166275
 30
0.0
  0
INSERT
  5
9EB
330
17
100
AcDbEntity
  8
TREES
100
AcDbBlockReference
  2
TREE_PLAN
 10
362.48464088894275
 20
1660.4435854510425
 30
0.0
  0
INSERT
  5
9ED
330
17
100
AcDbEntity
  8
TREES
100
AcDbBlockReference
  2
TREE_PLAN
 10
370.0771581294778
 20
1721.603695085922
 30
0.0
  0
INSERT
  5
9EF
330
17
100
AcDbEntity
  8
TREES
100
AcDbBlockReference
  2
TREE_PLAN
 10
318.52698372508314
 20
1694.0116955154188
 30
0.0
  0
INSERT
  5
9F1
330
17
100
AcDbEntity
  8
TREES
100
AcDbBlockReference
  2
TREE_PLAN
 10
324.07093453652254
 20
1736.6372833823632
 30
0.0
  0
INSERT
  5
9F3
330
17
100
AcDbEntity
  8
TREES
100
AcDbBlockReference
  2
TREE_PLAN
 10
351.4366200354993
 20
1664.0174708112513
 30
0.0
  0
INSERT
  5
9F5
330
17
100
AcDbEntity
  8
TREES
100
AcDbBlockReference
  2
TREE_PLAN
 10
329.9358623727977
 20
1727.8669077881327
 30
0.0
  0
INSERT
  5
9F7
330
17
100
AcDbEntity
  8
TREES
100
AcDbBlockReference
  2
TREE_PLAN
 10
346.5169460376138
 20
1724.113328137781
 30
0.0
  0
INSERT
  5
9F9
330
17
100
AcDbEntity
  8
TREES
100
AcDbBlockReference
  2
TREE_PLAN
 10
363.4062186069082
 20
1739.0313962453158
 30
0.0
  0
INSERT
  5
9FB
330
17
100
AcDbEntity
  8
TREES
100
AcDbBlockReference
  2
TREE_PLAN
 10
357.63618547755357
 20
1736.0031686754526
 30
0.0
  0
INSERT
  5
9FD
330
17
100
AcDbEntity
  8
TREES
100
AcDbBlockReference
  2
TREE_PLAN
 10
381.3140740648349
 20
1709.012185820941
 30
0.0
  0
INSERT
  5
9FF
330
17
100
AcDbEntity
  8
TREES
100
AcDbBlockReference
  2
TREE_PLAN
 10
367.5419169020774
 20
1700.382253185952
 30
0.0
  0
INSERT
  5
A01
330
17
100
AcDbEntity
  8
TREES
100
AcDbBlockReference
  2
TREE_PLAN
 10
376.4455335777132
 20
1703.8297560488663
 30
0.0
  0
INSERT
  5
A03
330
17
100
AcDbEntity
  8
TREES
100
AcDbBlockReference
  2
TREE_PLAN
 10
381.776648258661
 20
1719.4924353727667
 30
0.0
  0
INSERT
  5
A05
330
17
100
AcDbEntity
  8
TREES
100
AcDbBlockReference
  2
TREE_PLAN
 10
347.9739549458443
 20
1680.7353238772016
 30
0.0
  0
INSERT
  5
A07
330
17
100
AcDbEntity
  8
TREES
100
AcDbBlockReference
  2
TREE_PLAN
 10
1579.7791790007727
 20
1711.0129149420925
 30
0.0
  0
INSERT
  5
A09
330
17
100
AcDbEntity
  8
TREES
100
AcDbBlockReference
  2
TREE_PLAN
 10
1621.2650947437733
 20
1701.7039850262386
 30
0.0
  0
INSERT
  5
A0B
330
17
100
AcDbEntity
  8
TREES
100
AcDbBlockReference
  2
TREE_PLAN
 10
1610.1398749585426
 20
1681.9677957534032
 30
0.0
  0
INSERT
  5
A0D
330
17
100
AcDbEntity
  8
TREES
100
AcDbBlockReference
  2
TREE_PLAN
 10
1566.1986683091789
 20
1682.8582520690522
 30
0.0
  0
INSERT
  5
A0F
330
17
100
AcDbEntity
  8
TREES
100
AcDbBlockReference
  2
TREE_PLAN
 10
1581.7372085665747
 20
1685.576765473501
 30
0.0
  0
INSERT
  5
A11
330
17
100
AcDbEntity
  8
TREES
100
AcDbBlockReference
  2
TREE_PLAN
 10
1603.2121778014766
 20
1671.0699249212926
 30
0.0
  0
INSERT
  5
A13
330
17
100
AcDbEntity
  8
TREES
100
AcDbBlockReference
  2
TREE_PLAN
 10
1578.500918378255
 20
1715.5159849839242
 30
0.0
  0
INSERT
  5
A15
330
17
100
AcDbEntity
  8
TREES
100
AcDbBlockReference
  2
TREE_PLAN
 10
1616.5135313355643
 20
1665.1383080571102
 30
0.0
  0
INSERT
  5
A17
330
17
100
AcDbEntity
  8
TREES
100
AcDbBlockReference
  2
TREE_PLAN
 10
1592.607949573327
 20
1703.4088912403133
 30
0.0
  0
INSERT
  5
A19
330
17
100
AcDbEntity
  8
TREES
100
AcDbBlockReference
  2
TREE_PLAN
 10
1593.2619387282525
 20
1676.5467511611528
 30
0.0
  0
INSERT
  5
A1B
330
17
100
AcDbEntity
  8
TREES
100
AcDbBlockReference
  2
TREE_PLAN
 10
1593.611481421874
 20
1732.387078267214
 30
0.0
  0
INSERT
  5
A1D
330
17
100
AcDbEntity
  8
TREES
100
AcDbBlockReference
  2
TREE_PLAN
 10
1606.726353136338
 20
1715.6418389198375
 30
0.0
  0
INSERT
  5
A1F
330
17
100
AcDbEntity
  8
TREES
100
AcDbBlockReference
  2
TREE_PLAN
 10
1628.5385625843148
 20
1721.2475660894456
 30
0.0
  0
INSERT
  5
A21
330
17
100
AcDbEntity
  8
TREES
100
AcDbBlockReference
  2
TREE_PLAN
 10
1590.430482314217
 20
1660.4716866867195
 30
0.0
  0
INSERT
  5
A23
330
17
100
AcDbEntity
  8
TREES
100
AcDbBlockReference
  2
TREE_PLAN
 10
1588.140704213746
 20
1720.278010004751
 30
0.0
  0
INSERT
  5
A25
330
17
100
AcDbEntity
  8
TREES
100
AcDbBlockReference
  2
TREE_PLAN
 10
374.74135653983734
 20
581.7401236929074
 30
0.0
  0
INSERT
  5
A27
330
17
100
AcDbEntity
  8
TREES
100
AcDbBlockReference
  2
TREE_PLAN
 10
344.3314897840875
 20
567.3260968284635
 30
0.0
  0
INSERT
  5
A29
330
17
100
AcDbEntity
  8
TREES
100
AcDbBlockReference
  2
TREE_PLAN
 10
353.2292616813687
 20
557.227681225887
 30
0.0
  0
INSERT
  5
A2B
330
17
100
AcDbEntity
  8
TREES
100
AcDbBlockReference
  2
TREE_PLAN
 10
330.4377086026673
 20
530.3595144235005
 30
0.0
  0
INSERT
  5
A2D
330
17
100
AcDbEntity
  8
TREES
100
AcDbBlockReference
  2
TREE_PLAN
 10
345.5085183232646
 20
517.03173739627
 30
0.0
  0
INSERT
  5
A2F
330
17
100
AcDbEntity
  8
TREES
100
AcDbBlockReference
  2
TREE_PLAN
 10
338.52906805888676
 20
562.5399319519845
 30
0.0
  0
INSERT
  5
A31
330
17
100
AcDbEntity
  8
TREES
100
AcDbBlockReference
  2
TREE_PLAN
 10
343.3021668396346
 20
526.5531311842457
 30
0.0
  0
INSERT
  5
A33
330
17
100
AcDbEntity
  8
TREES
100
AcDbBlockReference
  2
TREE_PLAN
 10
347.7173104462617
 20
523.9339458096813
 30
0.0
  0
INSERT
  5
A35
330
17
100
AcDbEntity
  8
TREES
100
AcDbBlockReference
  2
TREE_PLAN
 10
358.55798726818455
 20
516.8876516333596
 30
0.0
  0
INSERT
  5
A37
330
17
100
AcDbEntity
  8
TREES
100
AcDbBlockReference
  2
TREE_PLAN
 10
342.58141794377934
 20
554.5074388117342
 30
0.0
  0
INSERT
  5
A39
330
17
100
AcDbEntity
  8
TREES
100
AcDbBlockReference
  2
TREE_PLAN
 10
316.89714324382186
 20
559.9924753606535
 30
0.0
  0
INSERT
  5
A3B
330
17
100
AcDbEntity
  8
TREES
100
AcDbBlockReference
  2
TREE_PLAN
 10
324.4989641061395
 20
547.3188910836059
 30
0.0
  0
INSERT
  5
A3D
330
17
100
AcDbEntity
  8
TREES
100
AcDbBlockReference
  2
TREE_PLAN
 10
1668.519924344204
 20
441.5372704931698
 30
0.0
  0
INSERT
  5
A3F
330
17
100
AcDbEntity
  8
TREES
100
AcDbBlockReference
  2
TREE_PLAN
 10
1679.8162198948037
 20
437.8792063416916
 30
0.0
  0
INSERT
  5
A41
330
17
100
AcDbEntity
  8
TREES
100
AcDbBlockReference
  2
TREE_PLAN
 10
1718.286079552582
 20
441.53883508948957
 30
0.0
  0
INSERT
  5
A43
330
17
100
AcDbEntity
  8
TREES
100
AcDbBlockReference
  2
TREE_PLAN
 10
1717.640687648835
 20
473.2346999608691
 30
0.0
  0
INSERT
  5
A45
330
17
100
AcDbEntity
  8
TREES
100
AcDbBlockReference
  2
TREE_PLAN
 10
1682.6590072247666
 20
420.733436293315
 30
0.0
  0
INSERT
  5
A47
330
17
100
AcDbEntity
  8
TREES
100
AcDbBlockReference
  2
TREE_PLAN
 10
1666.3568300935008
 20
452.75933335457734
 30
0.0
  0
INSERT
  5
A49
330
17
100
AcDbEntity
  8
TREES
100
AcDbBlockReference
  2
TREE_PLAN
 10
1734.9935479956446
 20
439.49722406041286
 30
0.0
  0
INSERT
  5
A4B
330
17
100
AcDbEntity
  8
TREES
100
AcDbBlockReference
  2
TREE_PLAN
 10
1710.5100865274912
 20
469.68631347276266
 30
0.0
  0
INSERT
  5
A4D
330
17
100
AcDbEntity
  8
TREES
100
AcDbBlockReference
  2
TREE_PLAN
 10
1710.6228258670722
 20
467.7963242841668
 30
0.0
  0
INSERT
  5
A4F
330
17
100
AcDbEntity
  8
TREES
100
AcDbBlockReference
  2
TREE_PLAN
 10
1731.472821290119
 20
428.9552477653773
 30
0.0
  0
INSERT
  5
A51
330
17
100
AcDbEntity
  8
TREES
100
AcDbBlockReference
  2
TREE_PLAN
 10
1666.4266012124233
 20
425.6667642049353
 30
0.0
  0
INSERT
  5
A53
330
17
100
AcDbEntity
  8
TREES
100
AcDbBlockReference
  2
TREE_PLAN
 10
1673.8354682411943
 20
461.86211912339377
 30
0.0
  0
ENDSEC
  0
SECTION
  2
OBJECTS
  0
DICTIONARY
  5
A
330
0
100
AcDbDictionary
281
1
  3
ACAD_COLOR
350
B
  3
ACAD_GROUP
350
C
  3
ACAD_LAYOUT
350
D
  3
ACAD_MATERIAL
350
E
  3
ACAD_MLEADERSTYLE
350
F
  3
ACAD_MLINESTYLE
350
10
  3
ACAD_PLOTSETTINGS
350
11
  3
ACAD_PLOTSTYLENAME
350
12
  3
ACAD_SCALELIST
350
14
  3
ACAD_TABLESTYLE
350
15
  3
ACAD_VISUALSTYLE
350
16
  3
EZDXF_META
350
2D
  0
DICTIONARY
  5
B
330
A
100
AcDbDictionary
281
1
  0
DICTIONARY
  5
C
330
A
100
AcDbDictionary
281
1
  0
DICTIONARY
  5
D
330
A
100
AcDbDictionary
281
1
  3
Model
350
1A
  3
Layout1
350
1E
  0
DICTIONARY
  5
E
330
A
100
AcDbDictionary
281
1
  3
ByBlock
350
1F
  3
ByLayer
350
20
  3
Global
350
21
  0
DICTIONARY
  5
F
330
A
100
AcDbDictionary
281
1
  3
Standard
350
2C
  0
DICTIONARY
  5
10
330
A
100
AcDbDictionary
281
1
  3
Standard
350
22
  0
DICTIONARY
  5
11
330
A
100
AcDbDictionary
281
1
  0
ACDBDICTIONARYWDFLT
  5
12
330
A
100
AcDbDictionary
281
1
  3
Normal
350
13
100
AcDbDictionaryWithDefault
340
13
  0
ACDBPLACEHOLDER
  5
13
330
12
  0
DICTIONARY
  5
14
330
A
100
AcDbDictionary
281
1
  0
DICTIONARY
  5
15
330
A
100
AcDbDictionary
281
1
  0
DICTIONARY
  5
16
330
A
100
AcDbDictionary
281
1
  3
2dWireframe
350
5A
  3
Basic
350
5B
  3
Brighten
350
5C
  3
ColorChange
350
5D
  3
Conceptual
350
5E
  3
Dim
350
5F
  3
EdgeColorOff
350
60
  3
Facepattern
350
61
  3
Flat
350
62
  3
FlatWithEdges
350
63
  3
Gouraud
350
64
  3
GouraudWithEdges
350
65
  3
Hidden
350
66
  3
JitterOff
350
67
  3
Linepattern
350
68
  3
Modeling
350
69
  3
OverhangOff
350
6A
  3
Realistic
350
6B
  3
Shaded
350
6C
  3
Shaded with edges
350
6D
  3
Shades of Gray
350
6E
  3
Sketchy
350
6F
  3
Thicken
350
70
  3
Wireframe
350
71
  3
X-Ray
350
72
  0
LAYOUT
  5
1A
330
D
100
AcDbPlotSettings
  1

  4
A3
  6

 40
7.5
 41
20.0
 42
7.5
 43
20.0
 44
420.0
 45
297.0
 46
0.0
 47
0.0
 48
0.0
 49
0.0
140
0.0
141
0.0
142
1.0
143
1.0
 70
1024
 72
1
 73
0
 74
5
  7

 75
16
 76
0
 77
2
 78
300
147
1.0
148
0.0
149
0.0
100
AcDbLayout
  1
Model
 70
1
 71
0
 10
0.0
 20
0.0
 11
420.0
 21
297.0
 12
0.0
 22
0.0
 32
0.0
 14
1e+20
 24
1e+20
 34
1e+20
 15
-1e+20
 25
-1e+20
 35
-1e+20
146
0.0
 13
0.0
 23
0.0
 33
0.0
 16
1.0
 26
0.0
 36
0.0
 17
0.0
 27
1.0
 37
0.0
 76
1
330
17
  0
LAYOUT
  5
1E
330
D
100
AcDbPlotSettings
  1

  4
A3
  6

 40
7.5
 41
20.0
 42
7.5
 43
20.0
 44
420.0
 45
297.0
 46
0.0
 47
0.0
 48
0.0
 49
0.0
140
0.0
141
0.0
142
1.0
143
1.0
 70
0
 72
1
 73
0
 74
5
  7

 75
16
 76
0
 77
2
 78
300
147
1.0
148
0.0
149
0.0
100
AcDbLayout
  1
Layout1
 70
1
 71
1
 10
0.0
 20
0.0
 11
420.0
 21
297.0
 12
0.0
 22
0.0
 32
0.0
 14
1e+20
 24
1e+20
 34
1e+20
 15
-1e+20
 25
-1e+20
 35
-1e+20
146
0.0
 13
0.0
 23
0.0
 33
0.0
 16
1.0
 26
0.0
 36
0.0
 17
0.0
 27
1.0
 37
0.0
 76
1
330
1B
  0
MATERIAL
  5
1F
102
{ACAD_REACTORS
330
E
102
}
330
E
100
AcDbMaterial
  1
ByBlock
  2

 70
0
 40
1.0
 71
1
 41
1.0
 91
-1023410177
 42
1.0
 72
1
  3

 73
1
 74
1
 75
1
 44
0.5
 73
0
 45
1.0
 46
1.0
 77
1
  4

 78
1
 79
1
170
1
 48
1.0
171
1
  6

172
1
173
1
174
1
140
1.0
141
1.0
175
1
  7

176
1
177
1
178
1
143
1.0
179
1
  8

270
1
271
1
272
1
145
1.0
146
1.0
273
1
  9

274
1
275
1
276
1
 42
1.0
 72
1
  3

 73
1
 74
1
 75
1
 94
63
  0
MATERIAL
  5
20
102
{ACAD_REACTORS
330
E
102
}
330
E
100
AcDbMaterial
  1
ByLayer
  2

 70
0
 40
1.0
 71
1
 41
1.0
 91
-1023410177
 42
1.0
 72
1
  3

 73
1
 74
1
 75
1
 44
0.5
 73
0
 45
1.0
 46
1.0
 77
1
  4

 78
1
 79
1
170
1
 48
1.0
171
1
  6

172
1
173
1
174
1
140
1.0
141
1.0
175
1
  7

176
1
177
1
178
1
143
1.0
179
1
  8

270
1
271
1
272
1
145
1.0
146
1.0
273
1
  9

274
1
275
1
276
1
 42
1.0
 72
1
  3

 73
1
 74
1
 75
1
 94
63
  0
MATERIAL
  5
21
102
{ACAD_REACTORS
330
E
102
}
330
E
100
AcDbMaterial
  1
Global
  2

 70
0
 40
1.0
 71
1
 41
1.0
 91
-1023410177
 42
1.0
 72
1
  3

 73
1
 74
1
 75
1
 44
0.5
 73
0
 45
1.0
 46
1.0
 77
1
  4

 78
1
 79
1
170
1
 48
1.0
171
1
  6

172
1
173
1
174
1
140
1.0
141
1.0
175
1
  7

176
1
177
1
178
1
143
1.0
179
1
  8

270
1
271
1
272
1
145
1.0
146
1.0
273
1
  9

274
1
275
1
276
1
 42
1.0
 72
1
  3

 73
1
 74
1
 75
1
 94
63
  0
MLINESTYLE
  5
22
102
{ACAD_REACTORS
330
10
102
}
330
10
100
AcDbMlineStyle
  2
Standard
 70
0
  3

 62
256
 51
90.0
 52
90.0
 71
2
 49
0.5
 62
256
  6
BYLAYER
 49
-0.5
 62
256
  6
BYLAYER
  0
MLEADERSTYLE
  5
2C
102
{ACAD_REACTORS
330
F
102
}
330
F
100
AcDbMLeaderStyle
179
2
170
2
171
1
172
0
 90
2
 40
0.0
 41
0.0
173
1
 91
-1056964608
 92
-2
290
1
 42
2.0
291
1
 43
8.0
  3
Standard
 44
4.0
300

342
29
174
1
175
1
176
0
178
1
 93
-1056964608
 45
4.0
292
0
297
0
 46
4.0
 94
-1056964608
 47
1.0
 49
1.0
140
1.0
294
1
141
0.0
177
0
142
1.0
295
0
296
0
143
3.75
271
0
272
9
273
9
  0
DICTIONARY
  5
2D
330
A
100
AcDbDictionary
280
1
281
1
  3
CREATED_BY_EZDXF
350
2E
  3
WRITTEN_BY_EZDXF
350
37E
  0
DICTIONARYVAR
  5
2E
330
2D
100
DictionaryVariables
280
0
  1
1.4.3 @ 2026-03-19T14:36:18.589911+00:00
  0
VISUALSTYLE
  5
5A
102
{ACAD_REACTORS
330
16
102
}
330
16
100
AcDbVisualStyle
  2
2dWireframe
 70
4
 90
0
 40
0.6
 62
7
290
0
291
0
  0
VISUALSTYLE
  5
5B
102
{ACAD_REACTORS
330
16
102
}
330
16
100
AcDbVisualStyle
  2
Basic
 70
7
 90
1
 40
0.6
 62
7
290
0
291
1
  0
VISUALSTYLE
  5
5C
102
{ACAD_REACTORS
330
16
102
}
330
16
100
AcDbVisualStyle
  2
Brighten
 70
12
 90
2
 40
0.6
 62
7
290
0
291
1
  0
VISUALSTYLE
  5
5D
102
{ACAD_REACTORS
330
16
102
}
330
16
100
AcDbVisualStyle
  2
ColorChange
 70
16
 90
2
 40
0.6
 62
8
290
0
291
1
  0
VISUALSTYLE
  5
5E
102
{ACAD_REACTORS
330
16
102
}
330
16
100
AcDbVisualStyle
  2
Conceptual
 70
9
 90
3
 40
0.6
 62
7
290
0
291
0
  0
VISUALSTYLE
  5
5F
102
{ACAD_REACTORS
330
16
102
}
330
16
100
AcDbVisualStyle
  2
Dim
 70
11
 90
2
 40
0.6
 62
7
290
0
291
1
  0
VISUALSTYLE
  5
60
102
{ACAD_REACTORS
330
16
102
}
330
16
100
AcDbVisualStyle
  2
EdgeColorOff
 70
22
 90
2
 40
0.6
 62
7
290
0
291
1
  0
VISUALSTYLE
  5
61
102
{ACAD_REACTORS
330
16
102
}
330
16
100
AcDbVisualStyle
  2
Facepattern
 70
15
 90
2
 40
0.6
 62
7
290
0
291
1
  0
VISUALSTYLE
  5
62
102
{ACAD_REACTORS
330
16
102
}
330
16
100
AcDbVisualStyle
  2
Flat
 70
0
 90
2
 40
0.6
 62
7
290
0
291
1
  0
VISUALSTYLE
  5
63
102
{ACAD_REACTORS
330
16
102
}
330
16
100
AcDbVisualStyle
  2
FlatWithEdges
 70
1
 90
2
 40
0.6
 62
7
290
0
291
1
  0
VISUALSTYLE
  5
64
102
{ACAD_REACTORS
330
16
102
}
330
16
100
AcDbVisualStyle
  2
Gouraud
 70
2
 90
2
 40
0.6
 62
7
290
0
291
1
  0
VISUALSTYLE
  5
65
102
{ACAD_REACTORS
330
16
102
}
330
16
100
AcDbVisualStyle
  2
GouraudWithEdges
 70
3
 90
2
 40
0.6
 62
7
290
0
291
1
  0
VISUALSTYLE
  5
66
102
{ACAD_REACTORS
330
16
102
}
330
16
100
AcDbVisualStyle
  2
Hidden
 70
6
 90
1
 40
0.6
 62
7
290
0
291
0
  0
VISUALSTYLE
  5
67
102
{ACAD_REACTORS
330
16
102
}
330
16
100
AcDbVisualStyle
  2
JitterOff
 70
20
 90
2
 40
0.6
 62
7
290
0
291
1
  0
VISUALSTYLE
  5
68
102
{ACAD_REACTORS
330
16
102
}
330
16
100
AcDbVisualStyle
  2
Linepattern
 70
14
 90
2
 40
0.6
 62
7
290
0
291
1
  0
VISUALSTYLE
  5
69
102
{ACAD_REACTORS
330
16
102
}
330
16
100
AcDbVisualStyle
  2
Modeling
 70
10
 90
2
 40
0.6
 62
7
290
0
291
0
  0
VISUALSTYLE
  5
6A
102
{ACAD_REACTORS
330
16
102
}
330
16
100
AcDbVisualStyle
  2
OverhangOff
 70
21
 90
2
 40
0.6
 62
7
290
0
291
1
  0
VISUALSTYLE
  5
6B
102
{ACAD_REACTORS
330
16
102
}
330
16
100
AcDbVisualStyle
  2
Realistic
 70
8
 90
2
 40
0.6
 62
7
290
0
291
0
  0
VISUALSTYLE
  5
6C
102
{ACAD_REACTORS
330
16
102
}
330
16
100
AcDbVisualStyle
  2
Shaded
 70
27
 90
2
 40
0.6
 62
7
290
0
291
0
  0
VISUALSTYLE
  5
6D
102
{ACAD_REACTORS
330
16
102
}
330
16
100
AcDbVisualStyle
  2
Shaded with edges
 70
26
 90
2
 40
0.6
 62
7
290
0
291
0
  0
VISUALSTYLE
  5
6E
102
{ACAD_REACTORS
330
16
102
}
330
16
100
AcDbVisualStyle
  2
Shades of Gray
 70
23
 90
2
 40
0.6
 62
7
290
0
291
0
  0
VISUALSTYLE
  5
6F
102
{ACAD_REACTORS
330
16
102
}
330
16
100
AcDbVisualStyle
  2
Sketchy
 70
24
 90
1
 40
0.6
 62
7
290
0
291
0
  0
VISUALSTYLE
  5
70
102
{ACAD_REACTORS
330
16
102
}
330
16
100
AcDbVisualStyle
  2
Thicken
 70
13
 90
2
 40
0.6
 62
7
290
0
291
1
  0
VISUALSTYLE
  5
71
102
{ACAD_REACTORS
330
16
102
}
330
16
100
AcDbVisualStyle
  2
Wireframe
 70
5
 90
0
 40
0.6
 62
7
290
0
291
0
  0
VISUALSTYLE
  5
72
102
{ACAD_REACTORS
330
16
102
}
330
16
100
AcDbVisualStyle
  2
X-Ray
 70
25
 90
2
 40
0.5
 62
7
290
0
291
0
  0
DICTIONARYVAR
  5
37E
330
2D
100
DictionaryVariables
280
0
  1
1.4.3 @ 2026-03-19T21:07:25.370850+00:00
  0
ENDSEC
  0
EOF
